Jedyny taki katalog polskich torrentów w sieci. Najlepsze torrenty w jednym miejscu.

Korzystanie ze strony jest darmowe. W przeciwieństwie do konkurencji nie kasujemy kont użytkowników bez ich wyraźnej prośby.


Torrent: Arena/The Arena (1974)[WebRip 1080p x264 by Kis & alE13 AC3][Napisy PL/Eng][Eng]

Arena/The Arena (1974)[WebRip 1080p x264 by Kis & alE13 AC3][Napisy PL/Eng][Eng] torrent
Dodał: alE13
26.11.2018 14:51
Kategoria: Akcja

Rozmiar: 7.73 GB
Seed'ów: 0
Leecher'ów: 0
Pobrań: 0

Kondycja:
 


» Komentarze [0]
» Obserwuj
» Zgłoś plik
User image

https://www.imdb.com/title/tt0069729/
https://www.filmweb.pl/film/The+Arena-1974-94546

Plik zawiera Sample.

reżyseria: Joe D'AmatoSteve Carver
scenariusz: John William CorringtonJoyce Hooper Corrington
gatunek: Akcja
produkcja: USA,Włochy
premiera: styczeń 1974 (świat)
muzyka: Francesco De Masi
zdjęcia: Joe D'Amato
czas: 1 h 20 min

opis:

Two thousand years ago, the people of Rome are so blasée, so used to violence, that entertaining
them becomes a political problem. Someone suggests, after a hectic girl fight in a kitchen between
a Nubian and a Viking slave, as a joke, that they should fight in the arena, instead of male
gladiators. The idea is approved, though - and a female "Spartacus" theme follows.

Akcja filmu toczy się dwa tysiące lat temu w Rzymie. Mieszkańcy miasta są spragnieni
krwi i domagają się ciągłego organizowania igrzysk, których główną atrakcją są walki
gladiatorów. Tych jednak ciągle ubywa, co staje się poważnym problemem politycznym
- mieszkańcy miasta, kiedy nie zaspokoi się ich pragnień mogą stać się niebezpieczni.
Pewnego dnia w pałacowej kuchni dochodzi do bójki pomiędzy dwiema niewolnicami - Numibijką
i Nordyczką. Jeden z obserwatorów w formie żartu mówi, iż można organizować walki gladiatorów,
w których brałyby udział kobiety. Pozostali obserwatorzy biorą pomysł na poważnie - kluczowym
elementem następnych igrzysk mają stać się walki gladiatorek. Niewolnice zdają sobie sprawę
z tego, że tylko współpraca może uratować im życie. Dochodzi do rebelii.

Uwaga, nie czepiać się audio, takie było.

obsada:

User image
User image
User image
User image


Margaret Markov, Pam Grier, Lucretia Love

dane techniczne:

The Arena (1974)-Kis & alE13.mkv
Format : Matroska
Format version : Version 4 / Version 2
File size : 7.66 GiB
Duration : 1 h 20 min
Overall bit rate : 13.6 Mb/s
Movie name : The Arena (1974)-Kis & alE13
Encoded date : UTC 2018-11-26 12:54:40
Writing application : mkvmerge v8.1.0 ('Psychedelic Postcard') 64bit
Writing library : libebml v1.3.1 + libmatroska v1.4.2
Cover : Yes
Attachments : Cover.jpg

Video
ID : 1
Format : AVC
Format/Info : Advanced Video Codec
Format profile : High@L4.1
Format settings : CABAC / 2 Ref Frames
Format settings, CABAC : Yes
Format settings, ReFrames : 2 frames
Codec ID : V_MPEG4/ISO/AVC
Duration : 1 h 20 min
Bit rate : 13.2 Mb/s
Width : 1 920 pixels
Height : 816 pixels
Display aspect ratio : 2.35:1
Frame rate mode : Constant
Frame rate : 23.976 (24000/1001) FPS
Color space : YUV
Chroma subsampling : 4:2:0
Bit depth : 8 bits
Scan type : Progressive
Bits/(Pixel*Frame) : 0.351
Stream size : 7.44 GiB (97%)
Title : The Arena (1974)-Kis & alE13
Writing library : x264 core 142
Default : Yes
Forced : No
Color range : Limited
Color primaries : BT.709
Transfer characteristics : BT.709
Matrix coefficients : BT.709

Audio
ID : 2
Format : AC-3
Format/Info : Audio Coding 3
Codec ID : A_AC3
Duration : 1 h 20 min
Bit rate mode : Constant
Bit rate : 384 kb/s
Channel(s) : 2 channels
Channel positions : Front: L R
Sampling rate : 48.0 kHz
Frame rate : 31.250 FPS (1536 SPF)
Bit depth : 16 bits
Compression mode : Lossy
Stream size : 222 MiB (3%)
Title : The Arena (1974)-Kis & alE13
Language : English
Service kind : Complete Main
Default : No
Forced : No

Text #1
ID : 3
Format : UTF-8
Codec ID : S_TEXT/UTF8
Codec ID/Info : UTF-8 Plain Text
Duration : 1 h 16 min
Bit rate : 22 b/s
Count of elements : 497
Stream size : 12.3 KiB (0%)
Title : The Arena (1974)-Kis & alE13
Language : Polish
Default : Yes
Forced : No

Text #2
ID : 4
Format : UTF-8
Codec ID : S_TEXT/UTF8
Codec ID/Info : UTF-8 Plain Text
Duration : 1 h 16 min
Bit rate : 24 b/s
Count of elements : 501
Stream size : 13.4 KiB (0%)
Title : The Arena (1974)-Kis & alE13
Language : English
Default : No
Forced : No

Menu
00:00:00.000 : en:Chapter 1
00:05:21.899 : en:Chapter 2
00:12:34.399 : en:Chapter 3
00:23:42.324 : en:Chapter 4
00:30:26.024 : en:Chapter 5
00:36:58.404 : en:Chapter 6
00:45:18.574 : en:Chapter 7
00:50:37.390 : en:Chapter 8
00:56:54.956 : en:Chapter 9
01:03:50.956 : en:Chapter 10
01:11:11.156 : en:Chapter 11
01:19:31.756 : en:Chapter 12
Ocena użytkowników Help
Działa(0) | Fake(0) | Nie działa(0) | Wymagane hasło(0) | Wirus(0)
Statystyki seed/leech Ostatnio aktualizowane: 2019-02-23 16:15:36 [Aktualizuj]
Napisano: 27.11.2021 18:51
 
Nikt jeszcze nie skomentował tego torrenta... Może Ty to zrobisz?
Oświadczenie: Pliki prezentowane w katalogu nie znajdują się na serwerach wortalu. Użytkownicy zezwolili na ich udostępnienie. Administrator serwisu BitNova.info oraz właściciel serwera nie może ponieść konsekwencji za to co użytkownicy udostępniają i publikują. Pamiętaj! Nie możesz używać tego serwisu do rozpowszechniania lub ściągania materiałów do których nie masz odpowiednich praw lub licencji. Użytkownicy są odpowiedzialni za przestrzeganie tych zasad.

(Disclaimer: None files presented in the directory aren't hosted on servers vortal. Users allow their release. The administrator of site BitNova.info and owner of the server can not be held responsible for what its users post, or any other actions of its users. You may not use this site to distribute or download any material when you do not have the legal rights to do so. It is your own responsibility to adhere to these terms.)
» Zgłaszanie nadużyć / Abuse