Jedyny taki katalog polskich torrentów w sieci. Najlepsze torrenty w jednym miejscu.

Korzystanie ze strony jest darmowe. W przeciwieństwie do konkurencji nie kasujemy kont użytkowników bez ich wyraźnej prośby.

Torrent: Zadzwoń do Saula - Better Call Saul [S04E10][720p][WEB-DL][x264][Lektor PL][Ralf]

Zadzwoń do Saula - Better Call Saul [S04E10][720p][WEB-DL][x264][Lektor PL][Ralf] torrent
Dodał:
11.10.2018 15:04
Kategoria: Sensacyjne

Rozmiar: 1.87 GB
Seed'ów: 0
Leecher'ów: 0
Pobrań: 0

Kondycja:
 


» Komentarze [0]
» Obserwuj
» Zgłoś plik
Akcja „Better Call Saul”, prequela „Breaking Bad”, rozpoczyna się 6 lat przed tym, jak Saul Goodman poznał Waltera White’a. Głównego bohatera poznajemy jako Jimmy’ego McGilla, początkującego prawnika szukającego przeznaczenia i celu w życiu. Serial przedstawia transformację Jimmy’ego w Saula Goodmana – osobę, która w przyszłości pomaga White’owi.


Format : Matroska
Format version : Version 4 / Version 2
File size : 1.87 GiB
Duration : 1h 0mn
Overall bit rate : 4 423 Kbps
Encoded date : UTC 2018-10-09 14:07:41
Writing application : mkvmerge v10.0.0 ('To Drown In You') 32bit
Writing library : libebml v1.3.4 + libmatroska v1.4.5

Video
ID : 1
Format : AVC
Format/Info : Advanced Video Codec
Format profile : High@L3.1
Format settings, CABAC : Yes
Format settings, ReFrames : 5 frames
Codec ID : V_MPEG4/ISO/AVC
Duration : 1h 0mn
Bit rate : 4 088 Kbps
Width : 1 280 pixels
Height : 720 pixels
Display aspect ratio : 16:9
Frame rate mode : Constant
Frame rate : 23.976 (24000/1001) fps
Color space : YUV
Chroma subsampling : 4:2:0
Bit depth : 8 bits
Scan type : Progressive
Bits/(Pixel*Frame) : 0.185
Stream size : 1.71 GiB (91%)
Writing library : x264 core 157 r2932
Language : English
Default : Yes
Forced : No

Audio
ID : 3
Format : AC-3
Format/Info : Audio Coding 3
Mode extension : CM (complete main)
Format settings, Endianness : Big
Codec ID : A_AC3
Duration : 1h 0mn
Bit rate mode : Constant
Bit rate : 384 Kbps
Channel(s) : 6 channels
Channel positions : Front: L C R, Side: L R, LFE
Sampling rate : 48.0 KHz
Frame rate : 31.250 fps (1536 spf)
Compression mode : Lossy
Stream size : 167 MiB (9%)
Language : Polish
Default : Yes
Forced : No

Text
ID : 2
Format : ASS
Codec ID : S_TEXT/ASS
Codec ID/Info : Advanced Sub Station Alpha
Duration : 19mn 53s
Bit rate : 1 bps
Count of elements : 3
Compression mode : Lossless
Stream size : 164 Bytes (0%)
Title : FORCED
Language : Polish
Default : Yes
Forced : Yes
Ocena użytkowników Help
Działa(0) | Fake(0) | Nie działa(0) | Wymagane hasło(0) | Wirus(0)
Statystyki seed/leech Ostatnio aktualizowane: 2020-03-16 19:13:24 [Aktualizuj]


Napisano: 04.02.2023 03:10
 
Nikt jeszcze nie skomentował tego torrenta... Może Ty to zrobisz?
Oświadczenie: Pliki prezentowane w katalogu nie znajdują się na serwerach wortalu. Użytkownicy zezwolili na ich udostępnienie. Administrator serwisu BitNova.info oraz właściciel serwera nie może ponieść konsekwencji za to co użytkownicy udostępniają i publikują. Pamiętaj! Nie możesz używać tego serwisu do rozpowszechniania lub ściągania materiałów do których nie masz odpowiednich praw lub licencji. Użytkownicy są odpowiedzialni za przestrzeganie tych zasad.

(Disclaimer: None files presented in the directory aren't hosted on servers vortal. Users allow their release. The administrator of site BitNova.info and owner of the server can not be held responsible for what its users post, or any other actions of its users. You may not use this site to distribute or download any material when you do not have the legal rights to do so. It is your own responsibility to adhere to these terms.)
» Zgłaszanie nadużyć / Abuse