Jedyny taki katalog polskich torrentów w sieci. Najlepsze torrenty w jednym miejscu.

Korzystanie ze strony jest darmowe. W przeciwieństwie do konkurencji nie kasujemy kont użytkowników bez ich wyraźnej prośby.


Torrent: Starship Troopers: Inwazja / Starship Troopers: Invasion [2012] [BRRip XviD Ac3] [Feel Free] [ENG]

Starship Troopers: Inwazja / Starship Troopers: Invasion [2012] [BRRip XviD Ac3] [Feel Free] [ENG] torrent
Dodał: Ishimura
09.10.2018 11:43
Kategoria: Akcja

Rozmiar: 1.20 GB
Seed'ów: 1
Leecher'ów: 0
Pobrań: 0

Kondycja:
 


» Komentarze [0]
» Obserwuj
» Zgłoś plik
Produkcja: Japonia, USA
Gatunek: Animacja, Akcja, Sci-Fi
Premiera: 21 lipca 2012 (świat)
Reżyseria: Shinji Aramaki
Scenariusz: Flint Dille

Film opowiada historię oddziału, który zostaję wysłany do odległego Fortu Casey gdzieś na końcu galaktyki, by pomóc stacjonującej tam grupie. Niestety placówka zostaje zaatakowana przez niebezpieczne owady. Kawalerzyści mają za zadanie pokonać stworzenia z kosmosu i bezpiecznie wrócić na Ziemię.

? Luci Christian .... Kapitan Carmen Ibanez
? Justin Doran .... Dr Carl Jenkins
? Leraldo Anzaldua .... Ratzass

Genre:Animation | Action | Sci-Fi
Language:English
IMDb:http://www.imdb.com/title/tt2085930/
Source:.BluRay.DTS.x264-CHD Thanks
Encoder:Tony

Format : AVI
Format/Info : Audio Video Interleave
File size : 1.20 GiB
Duration : 1h 28mn
Overall bit rate : 1 937 Kbps

Video
ID : 0
Format : MPEG-4 Visual
Format profile : Advanced <a href="/cdn-cgi/l/email-protection" class="__cf_email__" data-cfemail="693a000419050c29255c">[email&#160protected]</a>
Format settings, BVOP : 1
Format settings, QPel : No
Format settings, GMC : No warppoints
Format settings, Matrix : Default (H.263)
Codec ID : XVID
Codec ID/Hint : XviD
Duration : 1h 28mn
Bit rate : 1 544 Kbps
Width : 640 pixels
Height : 360 pixels
Display aspect ratio : 16:9
Frame rate : 23.976 fps
Color space : YUV
Chroma subsampling : 4:2:0
Bit depth : 8 bits
Scan type : Progressive
Compression mode : Lossy
Bits/(PixelFrame) : 0.279
Stream size : 981 MiB (80)
Writing library : XviD 1.2.1 (UTC 2008-12-04)

Audio
ID : 1
Format : AC-3
Format/Info : Audio Coding 3
Mode extension : CM (complete main)
Codec ID : 2000
Duration : 1h 28mn
Bit rate mode : Constant
Bit rate : 384 Kbps
Channel(s) : 6 channels
Channel positions : Front: L C R, Side: L R, LFE
Sampling rate : 48.0 KHz
Bit depth : 16 bits
Compression mode : Lossy
Stream size : 244 MiB (20)
Alignment : Aligned on interleaves
Interleave, duration : 42 ms (1.00 video frame)
Interleave, preload duration : 512 ms
Ocena użytkowników Help
Działa(0) | Fake(0) | Nie działa(0) | Wymagane hasło(0) | Wirus(0)
Statystyki seed/leech Ostatnio aktualizowane: 2019-02-26 18:29:04 [Aktualizuj]
Napisano: 30.11.2021 10:27
 
Nikt jeszcze nie skomentował tego torrenta... Może Ty to zrobisz?
Oświadczenie: Pliki prezentowane w katalogu nie znajdują się na serwerach wortalu. Użytkownicy zezwolili na ich udostępnienie. Administrator serwisu BitNova.info oraz właściciel serwera nie może ponieść konsekwencji za to co użytkownicy udostępniają i publikują. Pamiętaj! Nie możesz używać tego serwisu do rozpowszechniania lub ściągania materiałów do których nie masz odpowiednich praw lub licencji. Użytkownicy są odpowiedzialni za przestrzeganie tych zasad.

(Disclaimer: None files presented in the directory aren't hosted on servers vortal. Users allow their release. The administrator of site BitNova.info and owner of the server can not be held responsible for what its users post, or any other actions of its users. You may not use this site to distribute or download any material when you do not have the legal rights to do so. It is your own responsibility to adhere to these terms.)
» Zgłaszanie nadużyć / Abuse