Jedyny taki katalog polskich torrentów w sieci. Najlepsze torrenty w jednym miejscu.

Korzystanie ze strony jest darmowe. W przeciwieństwie do konkurencji nie kasujemy kont użytkowników bez ich wyraźnej prośby.


Torrent: Rojst S01E04 [1080p WEB DL H 264 AC3] [PL]

Rojst S01E04 [1080p WEB DL H 264 AC3] [PL] torrent
Dodał: Ishimura
07.09.2018 20:37
Kategoria: Seriale obyczajowe

Rozmiar: 1.78 GB
Seed'ów: 19
Leecher'ów: 9
Pobrań: 556

Kondycja:
 


» Komentarze [1]
» Obserwuj
» Zgłoś plik
Pobrałeś/aś podziękuj sedując . Daj szanse innym pobrać

Info:

Produkcja: Polska
Gatunek: Kryminalny
Reżyseria: Jan Holoubek
Scenariusz: Kasper Bajon, Jan Holoubek
Zdjęcia: Bartłomiej Kaczmarek
Muzyka: Jan Komar
Czas trwania: ok. 52 min.

Opis:

Miasteczkiem wstrząsa brutalne podwójne morderstwo. Kurier przekazuje tę sprawę doświadczonemu dziennikarzowi, Witoldowi Wanyczowi. Równocześnie dowiaduje się on o tajemniczym samobójstwie dwójki nastolatków. Wraz z Piotrem, młodym dziennikarzem, rozpoczynają własne śledztwo.

Obsada:

Andrzej Seweryn - Witold Wanycz
Dawid Ogrodnik - Piotr Zarzycki
Magdalena Walach - Helena Grochowiak
Zofia Wichłacz - Teresa
Agnieszka Żulewska - Nadia

Dane techniczne:

Format : Matroska
Format version : Version 4 / Version 2
File size : 2.98 GiB
Duration : 51 min 40 s
Overall bit rate mode : Variable
Overall bit rate : 8 249 kb/s
Encoded date : UTC 2018-08-31 13:04:51

Video
ID : 1
Format : AVC
Format/Info : Advanced Video Codec
Format profile : High at L4
Format settings : CABAC / 4 Ref Frames
Format settings, CABAC : Yes
Format settings, ReFrames : 4 frames
Codec ID : V_MPEG4/ISO/AVC
Duration : 51 min 40 s
Bit rate mode : Variable
Bit rate : 7 863 kb/s
Maximum bit rate : 12.0 Mb/s
Width : 1 920 pixels
Height : 800 pixels
Display aspect ratio : 2.40:1
Frame rate mode : Constant
Frame rate : 29.970 (30000/1001) FPS
Color space : YUV
Chroma subsampling : 4:2:0
Bit depth : 8 bits
Scan type : Progressive
Bits/(PixelFrame) : 0.171
Stream size : 2.84 GiB (95)
Default : Yes
Forced : Yes
Color range : Limited
Color primaries : BT.709
Transfer characteristics : BT.709
Matrix coefficients : BT.709

Audio
ID : 2
Format : AC-3
Format/Info : Audio Coding 3
Codec ID : A_AC3
Duration : 51 min 40 s
Bit rate mode : Constant
Bit rate : 384 kb/s
Channel(s) : 2 channels
Channel positions : Front: L R
Sampling rate : 48.0 kHz
Frame rate : 31.250 FPS (1536 SPF)
Bit depth : 16 bits
Compression mode : Lossy
Stream size : 142 MiB (5)
Language : Polish
Service kind : Complete Main
Default : Yes
Forced : Yes
Ocena użytkowników Help
Działa(0) | Fake(0) | Nie działa(1) | Wymagane hasło(0) | Wirus(0)
Statystyki seed/leech Ostatnio aktualizowane: 2018-09-19 17:46:33 [Aktualizuj]
maguba
maguba
Napisano: 2018-09-10 20:34
 
19kB i tyle
Oświadczenie: Pliki prezentowane w katalogu nie znajdują się na serwerach wortalu. Użytkownicy zezwolili na ich udostępnienie. Administrator serwisu BitNova.info oraz właściciel serwera nie może ponieść konsekwencji za to co użytkownicy udostępniają i publikują. Pamiętaj! Nie możesz używać tego serwisu do rozpowszechniania lub ściągania materiałów do których nie masz odpowiednich praw lub licencji. Użytkownicy są odpowiedzialni za przestrzeganie tych zasad.

(Disclaimer: None files presented in the directory aren't hosted on servers vortal. Users allow their release. The administrator of site BitNova.info and owner of the server can not be held responsible for what its users post, or any other actions of its users. You may not use this site to distribute or download any material when you do not have the legal rights to do so. It is your own responsibility to adhere to these terms.)
» Zgłaszanie nadużyć / Abuse