Jedyny taki katalog polskich torrentów w sieci. Najlepsze torrenty w jednym miejscu.

Korzystanie ze strony jest darmowe. W przeciwieństwie do konkurencji nie kasujemy kont użytkowników bez ich wyraźnej prośby.


Torrent: Załoga/Ekipazh 3D (2016)[BRRip 1080p x264 by alE13 AC3]Napisy PL/Eng][Rus]

Załoga/Ekipazh 3D (2016)[BRRip 1080p x264 by alE13 AC3]Napisy PL/Eng][Rus] torrent
Dodał: alE13
15.08.2018 11:37
Kategoria: Thriller

Rozmiar: 8.23 GB
Seed'ów: 0
Leecher'ów: 0
Pobrań: 0

Kondycja:
 


» Komentarze [0]
» Obserwuj
» Zgłoś plik
User image

https://www.imdb.com/title/tt5653294/
https://www.filmweb.pl/film/Za%C5%82oga-2016-736231

Film w wersji 3D Half Over/Under.
Plik zawiera sample.


reżyseria: Nikolay Lebedev
scenariusz: Tikhon Kornev,Nikolai Kulikov
gatunek: Przygodowy,Thriller
produkcja: Rosja
premiera: 14-04-2016
zdjęcia: Ireneusz Hartowicz
czas: 2 h 17 min

opis:

A story about bravery, self-sacrifice and human dignity put on trial by the merciless power
of nature. A young pilot is fired from military air force after disobeying an absurd order.
He gets a job as a co-pilot with a civil airline. Being brutally honest and direct, he is not
on best terms with his new colleagues. During a flight to Asia his crew receives a distress
message from a volcanic island and makes a decision to attempt a rescue mission. Will it be
a success? Will they survive the disaster? They have a single chance to find that out:
by being a team and sticking up for one another.

Opowieść o młodym i utalentowanym lotniku, Aleksieju Guszczinie. Żadne autorytety
dla niego nie istnieją - woli postępować zgodnie ze swoim własnym kodeksem honorowym.
Za niewykonanie absurdalnego rozkazu zostaje wyrzucony z wojska i tylko cudem dostaje
szansę pracy w lotnictwie cywilnym. Swoją karierę lotnika musi więc zaczynać od początku.
Jego opiekunem jest kapitan samolotu, surowy i zasadniczy Leonid Zinczenko; jego koleżanką
i drugim pilotem - nieprzystępna piękność, Aleksandra. Relacje między załogą nie są proste,
ale na granicy życia i śmierci, kiedy ziemia usuwa się spod nóg, wokół szaleje ogień
i popiół, a ratunkiem jest tylko niebo, jedynie wspólnie mogą dokonać bohaterskiego czynu
i uratować setki ludzkich istnień. Guszczin musi wykorzystać wszystkie swoje umiejętności,
aby stało się to możliwe.

User image
User image
User image
User image

https://i.imgur.com/pws5jyr.jpg
https://i.imgur.com/ctdys3u.jpg
https://i.imgur.com/jrd0Vwc.jpg
https://i.imgur.com/MK62qMQ.jpg

obsada:

Vladimir Mashkov, Egor Morozov, Agne Grudyte

dane techniczne:

Ekipazh 3D (2016)-alE13.mkv
Format : Matroska
Format version : Version 4 / Version 2
File size : 8.16 GiB
Duration : 2 h 17 min
Overall bit rate : 8 514 kb/s
Movie name : Ekipazh 3D (2016)-alE13
Encoded date : UTC 2018-08-15 07:08:10
Writing application : mkvmerge v8.1.0 ('Psychedelic Postcard') 64bit
Writing library : libebml v1.3.1 + libmatroska v1.4.2
Cover : Yes
Attachments : Cover.jpg

Video
ID : 1
Format : AVC
Format/Info : Advanced Video Codec
Format profile : High@L4.1
Format settings : CABAC / 2 Ref Frames
Format settings, CABAC : Yes
Format settings, ReFrames : 2 frames
Codec ID : V_MPEG4/ISO/AVC
Duration : 2 h 17 min
Bit rate : 7 856 kb/s
Width : 1 920 pixels
Height : 1 080 pixels
Display aspect ratio : 16:9
Frame rate mode : Constant
Frame rate : 23.976 (24000/1001) FPS
Color space : YUV
Chroma subsampling : 4:2:0
Bit depth : 8 bits
Scan type : Progressive
Bits/(Pixel*Frame) : 0.158
Stream size : 7.53 GiB (92%)
Title : Ekipazh 3D (2016)-alE13
Writing library : x264 core 142
Default : Yes
Forced : No
Color range : Limited
Color primaries : BT.709
Transfer characteristics : BT.709
Matrix coefficients : BT.709

Audio
ID : 2
Format : AC-3
Format/Info : Audio Coding 3
Codec ID : A_AC3
Duration : 2 h 17 min
Bit rate mode : Constant
Bit rate : 640 kb/s
Channel(s) : 6 channels
Channel positions : Front: L C R, Side: L R, LFE
Sampling rate : 48.0 kHz
Frame rate : 31.250 FPS (1536 SPF)
Bit depth : 16 bits
Compression mode : Lossy
Stream size : 628 MiB (8%)
Title : Ekipazh 3D (2016)-alE13
Language : Russian
Service kind : Complete Main
Default : Yes
Forced : No

Text #1
ID : 3
Format : VobSub
Muxing mode : zlib
Codec ID : S_VOBSUB
Codec ID/Info : Picture based subtitle format used on DVDs
Duration : 2 h 11 min
Bit rate : 7 948 b/s
Count of elements : 1265
Stream size : 7.50 MiB (0%)
Title : Ekipazh 3D (2016)-alE13_3D
Language : Polish
Default : No
Forced : No

Text #2
ID : 4
Format : UTF-8
Codec ID : S_TEXT/UTF8
Codec ID/Info : UTF-8 Plain Text
Duration : 2 h 11 min
Bit rate : 51 b/s
Count of elements : 1265
Stream size : 49.5 KiB (0%)
Title : Ekipazh 3D (2016)-alE13
Language : Polish
Default : Yes
Forced : No

Text #3
ID : 5
Format : VobSub
Muxing mode : zlib
Codec ID : S_VOBSUB
Codec ID/Info : Picture based subtitle format used on DVDs
Duration : 2 h 12 min
Bit rate : 7 436 b/s
Count of elements : 848
Stream size : 7.02 MiB (0%)
Title : Ekipazh 3D (2016)-alE13_3D
Language : English
Default : No
Forced : No

Text #4
ID : 6
Format : UTF-8
Codec ID : S_TEXT/UTF8
Codec ID/Info : UTF-8 Plain Text
Duration : 2 h 12 min
Bit rate : 49 b/s
Count of elements : 848
Stream size : 48.3 KiB (0%)
Title : Ekipazh 3D (2016)-alE13
Language : English
Default : No
Forced : No

Menu
00:00:00.000 : en:1
00:10:07.315 : en:2
00:22:12.705 : en:3
00:32:04.464 : en:4
00:44:39.427 : en:5
00:54:12.749 : en:6
01:05:24.003 : en:7
01:17:50.374 : en:8
01:29:18.436 : en:9
01:37:11.658 : en:10
01:49:33.734 : en:11
02:05:27.603 : en:12
Ocena użytkowników Help
Działa(0) | Fake(0) | Nie działa(0) | Wymagane hasło(0) | Wirus(0)
Statystyki seed/leech Ostatnio aktualizowane: 2021-09-06 18:13:18 [Aktualizuj]
Napisano: 13.08.2022 17:17
 
Nikt jeszcze nie skomentował tego torrenta... Może Ty to zrobisz?
Oświadczenie: Pliki prezentowane w katalogu nie znajdują się na serwerach wortalu. Użytkownicy zezwolili na ich udostępnienie. Administrator serwisu BitNova.info oraz właściciel serwera nie może ponieść konsekwencji za to co użytkownicy udostępniają i publikują. Pamiętaj! Nie możesz używać tego serwisu do rozpowszechniania lub ściągania materiałów do których nie masz odpowiednich praw lub licencji. Użytkownicy są odpowiedzialni za przestrzeganie tych zasad.

(Disclaimer: None files presented in the directory aren't hosted on servers vortal. Users allow their release. The administrator of site BitNova.info and owner of the server can not be held responsible for what its users post, or any other actions of its users. You may not use this site to distribute or download any material when you do not have the legal rights to do so. It is your own responsibility to adhere to these terms.)
» Zgłaszanie nadużyć / Abuse