Jedyny taki katalog polskich torrentów w sieci. Najlepsze torrenty w jednym miejscu.

Korzystanie ze strony jest darmowe. W przeciwieństwie do konkurencji nie kasujemy kont użytkowników bez ich wyraźnej prośby.


Torrent: Król Lew/The Lion King 3D [1994][BDRip 1080p x264 AC3] [Dubbing i Napisy PL/Eng] [Eng]

Król Lew/The Lion King 3D [1994][BDRip 1080p x264  AC3] [Dubbing i Napisy PL/Eng] [Eng] torrent
Dodał: Ishimura
24.07.2018 10:23
Kategoria: Akcja

Rozmiar: 7.97 GB
Seed'ów: 5
Leecher'ów: 5
Pobrań: 1175

Kondycja:
 


» Komentarze [1]
» Obserwuj
» Zgłoś plik
Info

reżyseria: Rob Minkoff,Roger Allers
scenariusz: Jonathan Roberts,Linda Woolverton
gatunek: Animacja,Familijny
produkcja: USA
premiera: 15-06-1994
muzyka: Hans Zimmer
czas: 1h 28 min

Opis

A Lion cub crown prince is tricked by a treacherous uncle into thinking he caused his fathers
death and flees into exile in despair, only to learn in adulthood his identity and his responsibilities.

Targany niesłusznymi wyrzutami sumienia po śmierci ojca mały lew Simba skazuje się na wygnanie, rezygnując
z przynależnego mu miejsca na czele stada.

Obsada

Matthew Broderick, Jeremy Irons, James Earl Jones (voice)

Dane techniczne

The Lion King 3D (1994)-censored.mkv
Format : Matroska
Format version : Version 4 / Version 2
File size : 7.91 GiB
Duration : 1 h 28 min
Overall bit rate : 12.7 Mb/s
Movie name : The Lion King 3D (1994)-censored
Encoded date : UTC 2018-07-20 10:23:56
Writing application : mkvmerge v8.1.0 (Psychedelic Postcard) 64bit
Writing library : libebml v1.3.1 + libmatroska v1.4.2
Cover : Yes
Attachments : Cover.jpg

Video
ID : 1
Format : AVC
Format/Info : Advanced Video Codec
Format profile : High at L4.1
Format settings : CABAC / 2 Ref Frames
Format settings, CABAC : Yes
Format settings, ReFrames : 2 frames
Codec ID : V_MPEG4/ISO/AVC
Duration : 1 h 28 min
Bit rate : 11.6 Mb/s
Width : 1 920 pixels
Height : 1 080 pixels
Display aspect ratio : 16:9
Frame rate mode : Constant
Frame rate : 23.976 (24000/1001) FPS
Color space : YUV
Chroma subsampling : 4:2:0
Bit depth : 8 bits
Scan type : Progressive
Bits/(PixelFrame) : 0.234
Stream size : 7.22 GiB (91)
Title : The Lion King 3D (1994)-censored
Writing library : x264 core 142
Default : Yes
Forced : No
Color range : Limited
Color primaries : BT.709
Transfer characteristics : BT.709
Matrix coefficients : BT.709

Audio #1
ID : 2
Format : AC-3
Format/Info : Audio Coding 3
Codec ID : A_AC3
Duration : 1 h 28 min
Bit rate mode : Constant
Bit rate : 640 kb/s
Channel(s) : 6 channels
Channel positions : Front: L C R, Side: L R, LFE
Sampling rate : 48.0 kHz
Frame rate : 31.250 FPS (1536 SPF)
Bit depth : 16 bits
Compression mode : Lossy
Stream size : 407 MiB (5)
Title : The Lion King 3D (1994)-censored
Language : English
Service kind : Complete Main
Default : No
Forced : No

Audio #2
ID : 7
Format : AC-3
Format/Info : Audio Coding 3
Codec ID : A_AC3
Duration : 1 h 28 min
Bit rate mode : Constant
Bit rate : 448 kb/s
Channel(s) : 6 channels
Channel positions : Front: L C R, Side: L R, LFE
Sampling rate : 48.0 kHz
Frame rate : 31.250 FPS (1536 SPF)
Bit depth : 16 bits
Compression mode : Lossy
Stream size : 284 MiB (4)
Title : The Lion King 3D (1994)-censored_AC3
Language : Polish
Service kind : Complete Main
Default : Yes
Forced : No

Text #1
ID : 3
Format : VobSub
Muxing mode : zlib
Codec ID : S_VOBSUB
Codec ID/Info : Picture based subtitle format used on DVDs
Duration : 1 h 22 min
Bit rate : 9 050 b/s
Count of elements : 1179
Stream size : 5.35 MiB (0)
Title : The Lion King 3D (1994)-censored_3D
Language : English
Default : No
Forced : No

Text #2
ID : 4
Format : UTF-8
Codec ID : S_TEXT/UTF8
Codec ID/Info : UTF-8 Plain Text
Duration : 1 h 22 min
Bit rate : 59 b/s
Count of elements : 1179
Stream size : 36.1 KiB (0)
Title : The Lion King 3D (1994)-censored_SRT
Language : English
Default : No
Forced : No

Text #3
ID : 5
Format : VobSub
Muxing mode : zlib
Codec ID : S_VOBSUB
Codec ID/Info : Picture based subtitle format used on DVDs
Duration : 1 h 21 min
Bit rate : 8 812 b/s
Count of elements : 1139
Stream size : 5.16 MiB (0)
Title : The Lion King 3D (1994)-censored_3D
Language : Polish
Default : No
Forced : No

Text #4
ID : 6
Format : UTF-8
Codec ID : S_TEXT/UTF8
Codec ID/Info : UTF-8 Plain Text
Duration : 1 h 21 min
Bit rate : 55 b/s
Count of elements : 1139
Stream size : 33.5 KiB (0)
Title : The Lion King 3D (1994)-censored_SRT
Default : No
Forced : No
Ocena użytkowników Help
Działa(0) | Fake(0) | Nie działa(0) | Wymagane hasło(0) | Wirus(0)
Statystyki seed/leech Ostatnio aktualizowane: 2018-08-11 19:53:17 [Aktualizuj]
alE13
alE13
Napisano: 2018-08-07 08:30
 
Skąd ja znam tego torrenta??
Oświadczenie: Pliki prezentowane w katalogu nie znajdują się na serwerach wortalu. Użytkownicy zezwolili na ich udostępnienie. Administrator serwisu BitNova.info oraz właściciel serwera nie może ponieść konsekwencji za to co użytkownicy udostępniają i publikują. Pamiętaj! Nie możesz używać tego serwisu do rozpowszechniania lub ściągania materiałów do których nie masz odpowiednich praw lub licencji. Użytkownicy są odpowiedzialni za przestrzeganie tych zasad.

(Disclaimer: None files presented in the directory aren't hosted on servers vortal. Users allow their release. The administrator of site BitNova.info and owner of the server can not be held responsible for what its users post, or any other actions of its users. You may not use this site to distribute or download any material when you do not have the legal rights to do so. It is your own responsibility to adhere to these terms.)
» Zgłaszanie nadużyć / Abuse