Jedyny taki katalog polskich torrentów w sieci. Najlepsze torrenty w jednym miejscu.

Korzystanie ze strony jest darmowe. W przeciwieństwie do konkurencji nie kasujemy kont użytkowników bez ich wyraźnej prośby.


Torrent: LONDON (2005) [AC3.DVDRIP.XVID-NN] [LEKTOR PL

LONDON (2005) [AC3.DVDRIP.XVID-NN] [LEKTOR PL torrent
Dodał: andrzej559
02.07.2018 10:38
Kategoria: Dramat

Rozmiar: 1.46 GB
Seed'ów: 7
Leecher'ów: 0
Pobrań: 84

Kondycja:
 


» Komentarze [2]
» Obserwuj
» Zgłoś plik
==================
...::: INFO :::...
==================

reżyseria: Hunter Richards
scenariusz: Hunter Richards
gatunek: Dramat
produkcja: USA Wielka Brytania
premiera: 3 września 2005 (świat)

==================
...::: OPIS :::...
==================

Nic dziwnego, że burzliwy romans Syda (Chris Evans - Fantastyczna Czwórka) i pięknej London (Jessica Biel - Niewidzialny) zakończył się z hukiem. Syd jest totalnym wrakiem człowieka - odrętwiały z powodu alkoholu i narkotyków nagle,odkryw, że przyjaciele London namawiają ją do wyjazdu. Wściekły z powodu jej planów Syd, w towarzystwie swego dilera (Jason Statham - Transporter 2) rozwala przyjęcie, mając nadziejęodwieść swoją miłość od opuszczenia miasta... bez względu na cenę.

==============
...::: OBSADA :::...
==============

Jessica Biel jako London
Jason Statham jako Bateman
Chris Evans jako Syd
Joy Bryant jako Mallory
Kelli Garner - Maya
Lina Esco - Kelly
Louis C.K. - Terapeuta
Jeff Wolfe - Jay

=======================
...::: DANE TECHNICZNE :::...
=======================

File size : 1.46 GiB
Duration : 1 h 28 min
Overall bit rate : 2 353 kb/s
Writing application : VirtualDubMod 1.5.10.2 (build 2542/release)

Video
Codec ID/Hint : XviD
Duration : 1 h 28 min
Bit rate : 1 954 kb/s
Width : 720 pixels
Height : 304 pixels
Display aspect ratio : 2.35:1
Frame rate : 25.000 FPS
Stream size : 1.21 GiB (83%)

2 lektorów PL

1 - Janusz Szydłowski
2 - Jacek Sobieszczański

Audio x 2
Format : AC-3
Bit rate : 192 kb/s
Channel(s) : 2 channels
Channel positions : Front: L R
Sampling rate : 48.0 kHz
Stream size : 122 MiB (8%)
Ocena użytkowników Help
Działa(0) | Fake(0) | Nie działa(0) | Wymagane hasło(0) | Wirus(0)
Statystyki seed/leech Ostatnio aktualizowane: 2018-07-10 07:05:57 [Aktualizuj]
CyboRKg
CyboRKg
Napisano: 2018-07-04 00:00
 
Jak widze, ze ktos ma gdzies Netykiete i wszystko pisze z capsem - to nawet tego nie sciagam.
andrzej559
andrzej559
Napisano: 2018-07-06 13:43
 
nikt cie nie prosi
Oświadczenie: Pliki prezentowane w katalogu nie znajdują się na serwerach wortalu. Użytkownicy zezwolili na ich udostępnienie. Administrator serwisu BitNova.info oraz właściciel serwera nie może ponieść konsekwencji za to co użytkownicy udostępniają i publikują. Pamiętaj! Nie możesz używać tego serwisu do rozpowszechniania lub ściągania materiałów do których nie masz odpowiednich praw lub licencji. Użytkownicy są odpowiedzialni za przestrzeganie tych zasad.

(Disclaimer: None files presented in the directory aren't hosted on servers vortal. Users allow their release. The administrator of site BitNova.info and owner of the server can not be held responsible for what its users post, or any other actions of its users. You may not use this site to distribute or download any material when you do not have the legal rights to do so. It is your own responsibility to adhere to these terms.)
» Zgłaszanie nadużyć / Abuse