Jedyny taki katalog polskich torrentów w sieci. Najlepsze torrenty w jednym miejscu.

Korzystanie ze strony jest darmowe. W przeciwieństwie do konkurencji nie kasujemy kont użytkowników bez ich wyraźnej prośby.


Torrent: WALL-E (2008) MULTi 1080p BluRay DTS-HD MA 5.1 Dubbing i Napisy PL

WALL-E (2008) MULTi 1080p BluRay DTS-HD MA 5.1 Dubbing i Napisy PL torrent
Dodał: PROAC
18.06.2018 23:31
Kategoria: Animowane

Rozmiar: 20.40 GB
Seed'ów: 0
Leecher'ów: 0
Pobrań: 0

Kondycja:
 


» Komentarze [0]
» Obserwuj
» Zgłoś plik
WALL-E (2008) MULTi 1080p BluRay DTS-HD MA 5.1 Dubbing i Napisy PL

INFO:

reżyseria: Andrew Stanton
scenariusz: Andrew StantonJim Reardon
gatunek: AnimacjaFamilijnySci-Fi
produkcja: USA
premiera: 18 lipca 2008 (Polska) 23 czerwca 2008 (świat)
boxoffice: $521 311 860 top #174

https://www.imdb.com/title/tt0910970/
http://www.filmweb.pl/film/WALL%C2%B7E-2008-399328

OPIS:
Twórcy zabierają Cię do nie tak odległej galaktyki na nową kosmiczno-komiczną przygodę o
rezolutnym robocie o imieniu WALL-E. Po setkach lat spędzonych w samotności na
wykonywaniu zadania, do którego go stworzono, ciekawski i uroczy WALL-E (Wysypiskowy
Automat Likwidująco Lewarujący. E-klasa) odkrywa nowy cel swojego istnienia. Jest nim
EWA, lśniący robot poszukiwawczy następnej generacji. Dołącz do nich i innych
przezabawnych bohaterów w fantastycznej kosmicznej podróży.

DANE TECH:
Format : Matroska
Format version : Version 4 / Version 2
File size : 19.4 GiB
Duration : 1 h 38 min
Overall bit rate : 28.1 Mb/s
Movie name : WALL-E
Encoded date : UTC 2018-03-06 08:23:39
Writing application : mkvmerge v15.0.0 ('Duel with the Devil') 64-bit
Writing library : libebml v1.3.5 + libmatroska v1.4.5

Video
ID : 1
Format : AVC
Format/Info : Advanced Video Codec
Format profile : High@L4.1
Format settings : CABAC / 4 Ref Frames
Format settings, CABAC : Yes
Format settings, ReFrames : 4 frames
Codec ID : V_MPEG4/ISO/AVC
Duration : 1 h 38 min
Bit rate mode : Constant
Bit rate : 23.3 Mb/s
Nominal bit rate : 30.5 Mb/s
Width : 1 920 pixels
Height : 1 080 pixels
Display aspect ratio : 16:9
Frame rate mode : Constant
Frame rate : 23.976 (24000/1001) FPS
Color space : YUV
Chroma subsampling : 4:2:0
Bit depth : 8 bits
Scan type : Progressive
Bits/(Pixel*Frame) : 0.470
Stream size : 16.1 GiB (83%)
Language : English
Default : Yes
Forced : No
Color range : Limited
Color primaries : BT.709
Transfer characteristics : BT.709
Matrix coefficients : BT.709

Audio #1
ID : 2
Format : AC-3
Format/Info : Audio Coding 3
Codec ID : A_AC3
Duration : 1 h 38 min
Bit rate mode : Constant
Bit rate : 640 kb/s
Channel(s) : 6 channels
Channel positions : Front: L C R, Side: L R, LFE
Sampling rate : 48.0 kHz
Frame rate : 31.250 FPS (1536 SPF)
Bit depth : 16 bits
Compression mode : Lossy
Stream size : 452 MiB (2%)
Language : Polish
Service kind : Complete Main
Default : Yes
Forced : No

Audio #2
ID : 3
Format : DTS
Format/Info : Digital Theater Systems
Format profile : MA / ES Matrix / Core
Codec ID : A_DTS
Duration : 1 h 38 min
Bit rate mode : Variable / Constant / Constant
Bit rate : 4 146 kb/s / 1 509 kb/s / 1 509 kb/s
Channel(s) : 7 channels / 7 channels / 6 channels
Channel positions : Front: L C R, Side: L R, Back: C, LFE / Front: L C R, Side: L R, Back: C, LFE / Front: L C R, Side: L R, LFE
Sampling rate : 48.0 kHz
Frame rate : 93.750 FPS (512 SPF)
Bit depth : 24 bits
Compression mode : Lossless / Lossy / Lossy
Stream size : 2.86 GiB (15%)
Title : Lossless
Language : English
Default : No
Forced : No

Text #1
ID : 4
Format : UTF-8
Codec ID : S_TEXT/UTF8
Codec ID/Info : UTF-8 Plain Text
Duration : 1 h 29 min
Bit rate : 24 b/s
Count of elements : 566
Stream size : 16.0 KiB (0%)
Language : Polish
Default : Yes
Forced : No

Text #2
ID : 5
Format : PGS
Muxing mode : zlib
Codec ID : S_HDMV/PGS
Codec ID/Info : Picture based subtitle format used on BDs/HD-DVDs
Duration : 1 h 37 min
Bit rate : 10.8 kb/s
Count of elements : 988
Stream size : 7.57 MiB (0%)
Language : English
Default : No
Forced : No
Ocena użytkowników Help
Działa(0) | Fake(0) | Nie działa(0) | Wymagane hasło(0) | Wirus(0)
Statystyki seed/leech Ostatnio aktualizowane: 2021-08-04 21:45:21 [Aktualizuj]
Napisano: 25.01.2022 08:38
 
Nikt jeszcze nie skomentował tego torrenta... Może Ty to zrobisz?
Oświadczenie: Pliki prezentowane w katalogu nie znajdują się na serwerach wortalu. Użytkownicy zezwolili na ich udostępnienie. Administrator serwisu BitNova.info oraz właściciel serwera nie może ponieść konsekwencji za to co użytkownicy udostępniają i publikują. Pamiętaj! Nie możesz używać tego serwisu do rozpowszechniania lub ściągania materiałów do których nie masz odpowiednich praw lub licencji. Użytkownicy są odpowiedzialni za przestrzeganie tych zasad.

(Disclaimer: None files presented in the directory aren't hosted on servers vortal. Users allow their release. The administrator of site BitNova.info and owner of the server can not be held responsible for what its users post, or any other actions of its users. You may not use this site to distribute or download any material when you do not have the legal rights to do so. It is your own responsibility to adhere to these terms.)
» Zgłaszanie nadużyć / Abuse