Jedyny taki katalog polskich torrentów w sieci. Najlepsze torrenty w jednym miejscu.

Korzystanie ze strony jest darmowe. W przeciwieństwie do konkurencji nie kasujemy kont użytkowników bez ich wyraźnej prośby.


Torrent: Prawo Ulicy The Wire 2002 2008 [S01 S05] [Komplet] [720p WEB DL H 264 AC3] [Lektor PL]

Prawo Ulicy The Wire 2002 2008 [S01 S05] [Komplet] [720p WEB DL H 264 AC3] [Lektor PL] torrent
Dodał: Ishimura
21.05.2018 16:53
Kategoria: Seriale obyczajowe

Rozmiar: 106.29 GB
Seed'ów: 0
Leecher'ów: 0
Pobrań: 0

Kondycja:
 


» Komentarze [1]
» Obserwuj
» Zgłoś plik
Info...

Prawo Ulicy - The Wire
Sezony 1-5 - Epizodów 60 --- Komplet
gatunek: Kryminał / Dramat
produkcja: USA
czas trwania: ok. 55-63 min.
premiera serialu: 02.06.2002 - Świat (HBO)
reżyseria: Clark Johnson, Clement Virgo, Joe Chappelle
scenariusz: David Simon, Ed Burns

Ocena FilmWEB: 8,5/10 (24 296)
Ocena IMDb: 9,3/10 (225 604)

Opis...

Jimmy McNulty i jego zawodowa partnerka Shakima Greggs zrobią wszystko, aby przestępcy odpowiedzieli za swoje zbrodnie. Gdy jeden z miejscowych dilerów narkotykowych zostaje oczyszczony z zarzutów o popełnione morderstwo, Jimmy postanawia działać. Wraz Shakimą, która jest jego jedynym sojusznikiem, wytacza prywatną wojnę narkotykowym baronom. Dwójka nieustraszonych partnerów stojących zawsze po stronie prawa, zrobi wszystko, aby przywódcy podziemnego gangu, jak najszybciej znaleźli się za kratkami.

http://www.filmweb.pl/serial/Prawo+ulicy-2002-87721
https://www.imdb.com/title/tt0306414/

Obsada...

Dominic West - James "Jimmy" McNulty
John Doman - William A. Rawls
Deirdre Lovejoy - Rhonda Pearlman
Wendell Pierce - William "Bunk" Moreland
Lance Reddick - Cedric Daniels
Sonja Sohn - Shakima "Kima" Greggs
Seth Gilliam - Ellis Carver
Domenick Lombardozzi - Thomas "Herc" Hauk

Dane techniczne na podstawie wybranego odcinka...

Format : Matroska
Format version : Version 4 / Version 2
File size : 1.89 GiB
Duration : 1 h 2 min
Overall bit rate : 4 353 kb/s
Encoded date : UTC 2015-01-07 14:55:42

Video
ID : 1
Format : AVC
Format/Info : Advanced Video Codec
Format profile : High at L3.1
Format settings : 2 Ref Frames
Format settings, CABAC : No
Format settings, ReFrames : 2 frames
Format settings, GOP : N=1
Codec ID : V_MPEG4/ISO/AVC
Duration : 1 h 2 min
Bit rate : 4 042 kb/s
Width : 1 280 pixels
Height : 718 pixels
Display aspect ratio : 16:9
Frame rate mode : Constant
Frame rate : 23.976 FPS
Color space : YUV
Chroma subsampling : 4:2:0
Bit depth : 8 bits
Scan type : Progressive
Bits/(PixelFrame) : 0.183
Stream size : 1.75 GiB (93)
Color range : Limited
Color primaries : BT.709
Transfer characteristics : BT.709
Matrix coefficients : BT.709

Audio
ID : 2
Format : AC-3
Format/Info : Audio Coding 3
Codec ID : A_AC3
Duration : 1 h 2 min
Bit rate mode : Constant
Bit rate : 224 kb/s
Channel(s) : 2 channels
Channel positions : Front: L R
Sampling rate : 48.0 kHz
Frame rate : 31.250 FPS (1536 SPF)
Bit depth : 16 bits
Compression mode : Lossy
Stream size : 99.5 MiB (5)
Language : Polish
Service kind : Complete Main
Ocena użytkowników Help
Działa(0) | Fake(0) | Nie działa(0) | Wymagane hasło(0) | Wirus(0)
Statystyki seed/leech Ostatnio aktualizowane: 2022-11-20 14:53:55 [Aktualizuj]
sucharski80krk
sucharski80krk
Napisano: 2022-11-15 21:42
 
Czy mogę prosić o jego udostępniamie?
Oświadczenie: Pliki prezentowane w katalogu nie znajdują się na serwerach wortalu. Użytkownicy zezwolili na ich udostępnienie. Administrator serwisu BitNova.info oraz właściciel serwera nie może ponieść konsekwencji za to co użytkownicy udostępniają i publikują. Pamiętaj! Nie możesz używać tego serwisu do rozpowszechniania lub ściągania materiałów do których nie masz odpowiednich praw lub licencji. Użytkownicy są odpowiedzialni za przestrzeganie tych zasad.

(Disclaimer: None files presented in the directory aren't hosted on servers vortal. Users allow their release. The administrator of site BitNova.info and owner of the server can not be held responsible for what its users post, or any other actions of its users. You may not use this site to distribute or download any material when you do not have the legal rights to do so. It is your own responsibility to adhere to these terms.)
» Zgłaszanie nadużyć / Abuse