Jedyny taki katalog polskich torrentów w sieci. Najlepsze torrenty w jednym miejscu.

Korzystanie ze strony jest darmowe. W przeciwieństwie do konkurencji nie kasujemy kont użytkowników bez ich wyraźnej prośby.


Torrent: Lucyfer Lucifer 2017 [S03E23] [720p WEB DL H 264 AC3] [Lektor PL] [ENG Napisy PL]

Lucyfer Lucifer 2017 [S03E23] [720p WEB DL H 264 AC3] [Lektor PL] [ENG Napisy PL] torrent
Dodał: Ishimura
17.05.2018 15:19
Kategoria: Seriale obyczajowe

Rozmiar: 1.50 GB
Seed'ów: 1
Leecher'ów: 2
Pobrań: 625

Kondycja:
 


» Komentarze [0]
» Obserwuj
» Zgłoś plik
Na 480p... trzeba czekać.

Info...

Lucyfer - Lucifer
Sezon 3 - Epizodów 22 + 4 (26)
gatunek: Fantasy / Kryminał
produkcja: USA
czas trwania: ok. 42 min.
premiera 3 sezonu: 02.10.2017
twórca serialu: Tom Kapinos

Ocena FilmWEB: 8/10 (51 279)
Ocena IMDb: 8,2/10 (101 497)

Opis...

Lucyfer Morningstar (Tom Ellis) to Władca Piekieł, którego nudzi dotychczasowe życie. Postanawia więc porzucić swoją funkcję i przenieść się do Los Angeles, gdzie zostaje właścicielem luksusowego klubu nocnego. Gdy dochodzi do zabójstwa wschodzącej gwiazdy muzyki pop, postanawia użyć swoich nadprzyrodzonych mocy, aby pomóc schwytać mordercę. Wkrótce rozpoczyna pracę w policji i stara się karać ludzi za zbrodnie.

http://www.filmweb.pl/serial/Lucifer-2016-742520
http://www.imdb.com/title/tt4052886/

Obsada...

Tom Ellis - Lucifer Morningstar
Lesley-Ann Brandt - Mazikeen Maze
Lauren German - Chloe Decker, detektyw
Rachael Harris - dr Linda Martin, terapeutka Lucifera
D. B. Woodside - Amenadiel, brat Lucyfera
Kevin Alejandro - Dan Espinoza, detektyw z wydziału zabójstw, były mąż Chloe
Kevin Rankin - Malcolm Graham, detektyw

Dane techniczne...

Format : Matroska
Format version : Version 4 / Version 2
File size : 1.50 GiB
Duration : 43 min 58 s
Overall bit rate : 4 872 kb/s
Encoded date : UTC 2018-05-16 15:36:30

Video
ID : 1
Format : AVC
Format/Info : Advanced Video Codec
Format profile : High at L3.1
Format settings : 2 Ref Frames
Format settings, CABAC : No
Format settings, ReFrames : 2 frames
Codec ID : V_MPEG4/ISO/AVC
Duration : 43 min 58 s
Bit rate : 4 102 kb/s
Width : 1 280 pixels
Height : 718 pixels
Display aspect ratio : 16:9
Frame rate mode : Constant
Frame rate : 23.976 (23976/1000) FPS
Color space : YUV
Chroma subsampling : 4:2:0
Bit depth : 8 bits
Scan type : Progressive
Bits/(PixelFrame) : 0.186
Stream size : 1.26 GiB (84)
Color range : Limited
Color primaries : BT.709
Transfer characteristics : BT.709
Matrix coefficients : BT.709

Audio 1
ID : 2
Format : AC-3
Format/Info : Audio Coding 3
Codec ID : A_AC3
Duration : 43 min 58 s
Bit rate mode : Constant
Bit rate : 384 kb/s
Channel(s) : 2 channels
Channel positions : Front: L R
Sampling rate : 48.0 kHz
Frame rate : 31.250 FPS (1536 SPF)
Bit depth : 16 bits
Compression mode : Lossy
Stream size : 121 MiB (8)
Language : Polish
Service kind : Complete Main
Default : Yes
Forced : Yes

Audio 2
ID : 3
Format : AC-3
Format/Info : Audio Coding 3
Codec ID : A_AC3
Duration : 43 min 58 s
Bit rate mode : Constant
Bit rate : 384 kb/s
Channel(s) : 6 channels
Channel positions : Front: L C R, Side: L R, LFE
Sampling rate : 48.0 kHz
Frame rate : 31.250 FPS (1536 SPF)
Bit depth : 16 bits
Compression mode : Lossy
Stream size : 121 MiB (8)
Language : English
Service kind : Complete Main
Default : No
Forced : No

Text
ID : 4
Format : UTF-8
Codec ID : S_TEXT/UTF8
Codec ID/Info : UTF-8 Plain Text
Duration : 41 min 44 s
Bit rate : 75 b/s
Count of elements : 730
Stream size : 23.1 KiB (0)
Language : Polish
Default : No
Forced : No
Ocena użytkowników Help
Działa(0) | Fake(0) | Nie działa(0) | Wymagane hasło(0) | Wirus(0)
Statystyki seed/leech Ostatnio aktualizowane: 2018-08-16 16:55:55 [Aktualizuj]
Napisano: 19.10.2018 13:26
 
Nikt jeszcze nie skomentował tego torrenta... Może Ty to zrobisz?
Oświadczenie: Pliki prezentowane w katalogu nie znajdują się na serwerach wortalu. Użytkownicy zezwolili na ich udostępnienie. Administrator serwisu BitNova.info oraz właściciel serwera nie może ponieść konsekwencji za to co użytkownicy udostępniają i publikują. Pamiętaj! Nie możesz używać tego serwisu do rozpowszechniania lub ściągania materiałów do których nie masz odpowiednich praw lub licencji. Użytkownicy są odpowiedzialni za przestrzeganie tych zasad.

(Disclaimer: None files presented in the directory aren't hosted on servers vortal. Users allow their release. The administrator of site BitNova.info and owner of the server can not be held responsible for what its users post, or any other actions of its users. You may not use this site to distribute or download any material when you do not have the legal rights to do so. It is your own responsibility to adhere to these terms.)
» Zgłaszanie nadużyć / Abuse