Jedyny taki katalog polskich torrentów w sieci. Najlepsze torrenty w jednym miejscu.

Korzystanie ze strony jest darmowe. W przeciwieństwie do konkurencji nie kasujemy kont użytkowników bez ich wyraźnej prośby.


Torrent: Valerian i Miasto Tysiąca Planet-Valerian and the City of a Thousand Planets 3D (2017)[BDRip 1080p x264 by alE13 AC3.DTS][Dubbing i Napisy PL/Eng][Eng]

Valerian i Miasto Tysiąca Planet-Valerian and the City of a Thousand Planets 3D (2017)[BDRip 1080p x264 by alE13 AC3.DTS][Dubbing i Napisy PL/Eng][Eng] torrent
Dodał: alE13
22.11.2017 17:17
Kategoria: Sci-Fi

Rozmiar: 13.70 GB
Seed'ów: 0
Leecher'ów: 0
Pobrań: 0

Kondycja:
 


» Komentarze [0]
» Obserwuj
» Zgłoś plik
User image

http://www.imdb.com/title/tt2239822/
http://www.filmweb.pl/film/Valerian+i+Miasto+Tysi%C4%85ca+Planet-2017-659080

Film w wersji 3D Half Over/Under.
Audio DTS w osobnym pliku, audio PL kinowe.
Plik zawiera Sample.


reżyseria: Luc Besson
scenariusz: Luc Besson
gatunek: Akcja,Sci-Fi
produkcja: Francja
premiera: 17-07-2017
muzyka: Alexandre Desplat
zdjęcia: Thierry Arbogast
czas: 02:16:39

opis:

A dark force threatens Alpha, a vast metropolis and home to species from a thousand planets. Special operatives
Valerian and Laureline must race to identify the marauding menace and safeguard not just Alpha, but the future
of the universe.
Valerian (Dane DeHaan) i Laurelina (Cara Delevingne) to kosmiczni agenci, odpowiedzialni za utrzymanie porządku
na terytoriach zamieszkałych przez ludzi. Podczas misji w Mieście Tysiąca Planet – kulturowym i politycznym centrum
galaktyki – przyjdzie im zmierzyć się ze złowrogą siłą, która zagraża bezpieczeństwu całego wszechświata.

User image
User image
User image
User image

obsada:

Dane DeHaan, Cara Delevingne, Clive Owen

dane techniczne:

audio:

Valerian and the City of a Thousand Planets 3D (2017)-alE13_DTS.mka

Hash: 730D0EDC50C3477A
Format: Matroska
Czas: 02:16:39.957
Rozmiar: 5.34 GiB (5731847998)

Audio (0):
Kodek: (DTS-HD) DTS-HD
Format: DTS
Kanały: 6 channels
BitRate: 4 080 kb/s / 1 509 kb/s
Tytuł: Valerian and the City of a Thousand Planets 3D (2017)-alE13_DTS HD Master Audio
Język: English

Audio (1):
Kodek: (DTS) DTS
Format: DTS
Kanały: 6 channels
BitRate: 1 509 kb/s
Tytuł: Valerian and the City of a Thousand Planets 3D (2017)-alE13_DTS
Język: English

video:

Valerian and the City of a Thousand Planets 3D (2017)-alE13.mkv
Format : Matroska
Format version : Version 4 / Version 2
File size : 8.29 GiB
Duration : 2 h 16 min
Overall bit rate : 8 681 kb/s
Movie name : Valerian and the City of a Thousand Planets 3D (2017)-alE13
Encoded date : UTC 2017-11-22 15:52:17
Writing application : mkvmerge v8.1.0 ('Psychedelic Postcard') 64bit
Writing library : libebml v1.3.1 + libmatroska v1.4.2
Cover : Yes
Attachments : cover.jpg

Video
ID : 1
Format : AVC
Format/Info : Advanced Video Codec
Format profile : High@L4.1
Format settings, CABAC : Yes
Format settings, ReFrames : 2 frames
Codec ID : V_MPEG4/ISO/AVC
Duration : 2 h 16 min
Bit rate : 7 806 kb/s
Width : 1 920 pixels
Height : 1 080 pixels
Display aspect ratio : 16:9
Frame rate mode : Constant
Frame rate : 23.976 (24000/1001) FPS
Color space : YUV
Chroma subsampling : 4:2:0
Bit depth : 8 bits
Scan type : Progressive
Bits/(Pixel*Frame) : 0.157
Stream size : 7.45 GiB (90%)
Title : Valerian and the City of a Thousand Planets 3D (2017)-alE13
Writing library : x264 core 142
Default : Yes
Forced : No
Color range : Limited
Color primaries : BT.709
Transfer characteristics : BT.709
Matrix coefficients : BT.709

Audio #1
ID : 2
Format : AC-3
Format/Info : Audio Coding 3
Mode extension : CM (complete main)
Format settings, Endianness : Big
Codec ID : A_AC3
Duration : 2 h 16 min
Bit rate mode : Constant
Bit rate : 640 kb/s
Channel(s) : 6 channels
Channel positions : Front: L C R, Side: L R, LFE
Sampling rate : 48.0 kHz
Frame rate : 31.250 FPS (1536 spf)
Compression mode : Lossy
Stream size : 626 MiB (7%)
Title : Valerian and the City of a Thousand Planets 3D (2017)-alE13_AC3
Language : English
Default : No
Forced : No

Audio #2
ID : 3
Format : AC-3
Format/Info : Audio Coding 3
Mode extension : CM (complete main)
Format settings, Endianness : Big
Codec ID : A_AC3
Duration : 2 h 16 min
Bit rate mode : Constant
Bit rate : 192 kb/s
Channel(s) : 2 channels
Channel positions : Front: L R
Sampling rate : 48.0 kHz
Frame rate : 31.250 FPS (1536 spf)
Compression mode : Lossy
Delay relative to video : 10 ms
Stream size : 188 MiB (2%)
Title : Valerian and the City of a Thousand Planets 3D (2017)-alE13_AC3_Kinowy
Language : Polish
Default : Yes
Forced : No

Text #1
ID : 4
Format : VobSub
Muxing mode : zlib
Codec ID : S_VOBSUB
Codec ID/Info : Picture based subtitle format used on DVDs
Duration : 2 h 6 min
Bit rate : 8 627 b/s
Count of elements : 1576
Stream size : 7.79 MiB (0%)
Title : Valerian and the City of a Thousand Planets 3D (2017)-alE13_VobSub
Language : Polish
Default : No
Forced : No

Text #2
ID : 5
Format : VobSub
Muxing mode : zlib
Codec ID : S_VOBSUB
Codec ID/Info : Picture based subtitle format used on DVDs
Duration : 2 h 5 min
Bit rate : 8 881 b/s
Count of elements : 1571
Stream size : 7.99 MiB (0%)
Title : Valerian and the City of a Thousand Planets 3D (2017)-alE13_VobSub
Language : English
Default : No
Forced : No

Text #3
ID : 6
Format : PGS
Muxing mode : zlib
Codec ID : S_HDMV/PGS
Codec ID/Info : Picture based subtitle format used on BDs/HD-DVDs
Duration : 2 h 6 min
Bit rate : 6 853 b/s
Count of elements : 2078
Stream size : 6.19 MiB (0%)
Title : Valerian and the City of a Thousand Planets 3D (2017)-alE13_DTS_Norwegian-PGS
Language : Norwegian
Default : No
Forced : No

Text #4
ID : 7
Format : PGS
Muxing mode : zlib
Codec ID : S_HDMV/PGS
Codec ID/Info : Picture based subtitle format used on BDs/HD-DVDs
Duration : 2 h 6 min
Bit rate : 7 480 b/s
Count of elements : 2380
Stream size : 6.77 MiB (0%)
Title : Valerian and the City of a Thousand Planets 3D (2017)-alE13_DTS_Swedish-PGS
Language : Swedish
Default : No
Forced : No

Text #5
ID : 8
Format : PGS
Muxing mode : zlib
Codec ID : S_HDMV/PGS
Codec ID/Info : Picture based subtitle format used on BDs/HD-DVDs
Duration : 2 h 7 min
Bit rate : 6 267 b/s
Count of elements : 2452
Stream size : 5.72 MiB (0%)
Title : Valerian and the City of a Thousand Planets 3D (2017)-alE13_DTS_Finnish-PGS
Language : Finnish
Default : No
Forced : No

Text #6
ID : 9
Format : PGS
Muxing mode : zlib
Codec ID : S_HDMV/PGS
Codec ID/Info : Picture based subtitle format used on BDs/HD-DVDs
Duration : 2 h 9 min
Bit rate : 6 695 b/s
Count of elements : 2072
Stream size : 6.20 MiB (0%)
Title : Valerian and the City of a Thousand Planets 3D (2017)-alE13_DTS_Danish-PGS
Language : Danish
Default : No
Forced : No

Menu
00:00:00.000 : en:(01)00:00:00:000
00:17:30.924 : en:(02)00:17:30:924
00:34:12.362 : en:(03)00:34:12:341
00:51:16.719 : en:(04)00:51:16:698
01:07:59.788 : en:(05)01:07:59:742
01:26:10.400 : en:(06)01:26:10:331
01:40:22.794 : en:(07)01:40:22:725
01:58:47.939 : en:(08)01:58:47:870
Ocena użytkowników Help
Działa(0) | Fake(0) | Nie działa(0) | Wymagane hasło(0) | Wirus(0)
Statystyki seed/leech Ostatnio aktualizowane: 2018-03-05 21:34:41 [Aktualizuj]
Napisano: 22.08.2018 01:26
 
Nikt jeszcze nie skomentował tego torrenta... Może Ty to zrobisz?
Oświadczenie: Pliki prezentowane w katalogu nie znajdują się na serwerach wortalu. Użytkownicy zezwolili na ich udostępnienie. Administrator serwisu BitNova.info oraz właściciel serwera nie może ponieść konsekwencji za to co użytkownicy udostępniają i publikują. Pamiętaj! Nie możesz używać tego serwisu do rozpowszechniania lub ściągania materiałów do których nie masz odpowiednich praw lub licencji. Użytkownicy są odpowiedzialni za przestrzeganie tych zasad.

(Disclaimer: None files presented in the directory aren't hosted on servers vortal. Users allow their release. The administrator of site BitNova.info and owner of the server can not be held responsible for what its users post, or any other actions of its users. You may not use this site to distribute or download any material when you do not have the legal rights to do so. It is your own responsibility to adhere to these terms.)
» Zgłaszanie nadużyć / Abuse