Jedyny taki katalog polskich torrentów w sieci. Najlepsze torrenty w jednym miejscu.

Korzystanie ze strony jest darmowe. W przeciwieństwie do konkurencji nie kasujemy kont użytkowników bez ich wyraźnej prośby.


Torrent: Pentameron-Il racconto dei racconti (2015)[BDRip 1080p x264 by alE13 AC3][Lektor i Napisy PL/Eng][Eng]

Pentameron-Il racconto dei racconti (2015)[BDRip 1080p x264 by alE13 AC3][Lektor i Napisy PL/Eng][Eng] torrent
Dodał: alE13
13.11.2017 19:37
Kategoria: Fantasy

Rozmiar: 8.19 GB
Seed'ów: 0
Leecher'ów: 3
Pobrań: 17

Kondycja:
 


» Komentarze [0]
» Obserwuj
» Zgłoś plik
[center]User image

http://www.imdb.com/title/tt3278330/
http://www.filmweb.pl/film/Pentameron-2015-707441

Plik zawiera Sample.

reżyseria: Matteo Garrone
scenariusz: Matteo Garrone,Edoardo Albinati,Ugo Chiti,Massimo Gaudioso
gatunek: Fantasy,Romans,Horror
produkcja: Francja,Wielka Brytania,Włochy
premiera: 14-05-2015
muzyka: Alexandre Desplat
zdjęcia: Peter Suschitzky
czas: 2 h 13 min

opis:

From the bitter quest of the Queen of Longtrellis, to two mysterious sisters who provoke the passion
of a king, to the King of Highhills obsessed with a giant Flea, these tales are inspired by the fairytales
by Giambattista Basile.

Wszystko zaczyna się od wyprawy po serce morskiego potwora. Zaborcza i wyniosła królowa (Salma Hayek)
gotowa jest poświęcić niejedno życie, żeby osiągnąć swój cel – urodzić upragnionego syna. Popadający
w szaleństwo nieobliczalny król (Toby Jones) oddaje rękę swojej pięknej i niewinnej córki zdeformowanemu
olbrzymowi. Dwie tajemnicze siostry zabiegają o względy lubieżnego władcy (Vincent Cassel). Stawką
są wieczna młodość i nieustające piękno, ale wygrać może tylko jedna z nich. W każdym człowieku kryje się
potwór. A miłość, piękno i marzenia mają swoją wysoką cenę.

User image
User image
User image
User image

obsada:

Salma Hayek, Vincent Cassel, Toby Jones

dane techniczne:

Il racconto dei racconti (2015)-alE13.mkv
Format : Matroska
Format version : Version 4 / Version 2
File size : 8.15 GiB
Duration : 2 h 13 min
Overall bit rate : 8 720 kb/s
Movie name : Il racconto dei racconti (2015)-alE13
Encoded date : UTC 2017-11-13 17:53:47
Writing application : mkvmerge v8.1.0 ('Psychedelic Postcard') 64bit
Writing library : libebml v1.3.1 + libmatroska v1.4.2
Cover : Yes
Attachments : Cover.jpg

Video
ID : 1
Format : AVC
Format/Info : Advanced Video Codec
Format profile : High@L4.1
Format settings, CABAC : Yes
Format settings, ReFrames : 2 frames
Codec ID : V_MPEG4/ISO/AVC
Duration : 2 h 13 min
Bit rate : 7 821 kb/s
Width : 1 920 pixels
Height : 816 pixels
Display aspect ratio : 2.35:1
Frame rate mode : Constant
Frame rate : 24.000 FPS
Color space : YUV
Chroma subsampling : 4:2:0
Bit depth : 8 bits
Scan type : Progressive
Bits/(Pixel*Frame) : 0.208
Stream size : 7.31 GiB (90%)
Title : Il racconto dei racconti (2015)-alE13
Writing library : x264 core 142
Default : Yes
Forced : No
Color range : Limited
Color primaries : BT.709
Transfer characteristics : BT.709
Matrix coefficients : BT.709

Audio #1
ID : 2
Format : AC-3
Format/Info : Audio Coding 3
Mode extension : CM (complete main)
Format settings, Endianness : Big
Codec ID : A_AC3
Duration : 2 h 13 min
Bit rate mode : Constant
Bit rate : 448 kb/s
Channel(s) : 6 channels
Channel positions : Front: L C R, Side: L R, LFE
Sampling rate : 48.0 kHz
Frame rate : 31.250 FPS (1536 spf)
Compression mode : Lossy
Stream size : 429 MiB (5%)
Title : Il racconto dei racconti (2015)-alE13_AC3
Language : Polish
Default : Yes
Forced : No

Audio #2
ID : 3
Format : AC-3
Format/Info : Audio Coding 3
Mode extension : CM (complete main)
Format settings, Endianness : Big
Codec ID : A_AC3
Duration : 2 h 13 min
Bit rate mode : Constant
Bit rate : 448 kb/s
Channel(s) : 6 channels
Channel positions : Front: L C R, Side: L R, LFE
Sampling rate : 48.0 kHz
Frame rate : 31.250 FPS (1536 spf)
Compression mode : Lossy
Stream size : 429 MiB (5%)
Title : Il racconto dei racconti (2015)-alE13_AC3
Language : English
Default : No
Forced : No

Text #1
ID : 4
Format : UTF-8
Codec ID : S_TEXT/UTF8
Codec ID/Info : UTF-8 Plain Text
Duration : 1 h 59 min
Bit rate : 19 b/s
Count of elements : 636
Stream size : 17.0 KiB (0%)
Title : Il racconto dei racconti (2015)-alE13
Language : English
Default : No
Forced : No

Text #2
ID : 5
Format : UTF-8
Codec ID : S_TEXT/UTF8
Codec ID/Info : UTF-8 Plain Text
Duration : 1 h 56 min
Bit rate : 22 b/s
Count of elements : 646
Stream size : 18.8 KiB (0%)
Title : Il racconto dei racconti (2015)-alE13
Language : Polish
Default : No
Forced : No

Menu
00:00:00.000 : en:Chapter 1
00:08:36.792 : en:Chapter 2
00:19:37.750 : en:Chapter 3
00:26:20.250 : en:Chapter 4
00:36:05.000 : en:Chapter 5
00:44:24.083 : en:Chapter 6
00:56:14.458 : en:Chapter 7
01:09:24.582 : en:Chapter 8
01:24:24.625 : en:Chapter 9
01:33:59.332 : en:Chapter 10
01:47:49.333 : en:Chapter 11
02:01:58.917 : en:Chapter 12[/center]
Ocena użytkowników Help
Działa(0) | Fake(0) | Nie działa(0) | Wymagane hasło(0) | Wirus(0)
Statystyki seed/leech Ostatnio aktualizowane: 2018-02-18 15:33:47 [Aktualizuj]
Napisano: 21.09.2018 23:57
 
Nikt jeszcze nie skomentował tego torrenta... Może Ty to zrobisz?
Oświadczenie: Pliki prezentowane w katalogu nie znajdują się na serwerach wortalu. Użytkownicy zezwolili na ich udostępnienie. Administrator serwisu BitNova.info oraz właściciel serwera nie może ponieść konsekwencji za to co użytkownicy udostępniają i publikują. Pamiętaj! Nie możesz używać tego serwisu do rozpowszechniania lub ściągania materiałów do których nie masz odpowiednich praw lub licencji. Użytkownicy są odpowiedzialni za przestrzeganie tych zasad.

(Disclaimer: None files presented in the directory aren't hosted on servers vortal. Users allow their release. The administrator of site BitNova.info and owner of the server can not be held responsible for what its users post, or any other actions of its users. You may not use this site to distribute or download any material when you do not have the legal rights to do so. It is your own responsibility to adhere to these terms.)
» Zgłaszanie nadużyć / Abuse