Jedyny taki katalog polskich torrentów w sieci. Najlepsze torrenty w jednym miejscu.

Korzystanie ze strony jest darmowe. W przeciwieństwie do konkurencji nie kasujemy kont użytkowników bez ich wyraźnej prośby.


Torrent: Shania Twain: The Platinum Collection (2001)[DVD 5 ISO by alE13 DTS/AC3][Eng]

Shania Twain: The Platinum Collection (2001)[DVD 5 ISO by alE13 DTS/AC3][Eng] torrent
Dodał: alE13
22.10.2017 09:42
Kategoria: Teledyski

Rozmiar: 5.25 GB
Seed'ów: 0
Leecher'ów: 0
Pobrań: 2

Kondycja:
 


» Komentarze [0]
» Obserwuj
» Zgłoś plik
User image

Bonus: Shania Twain: Hits

data: 2001
nagrania z lat: 1993–99
gatunek: Country, pop,
wytwórnia: Mercury Nashville
reżyseria: Markus Blunder, Paul Boyd, John Derek, Steven Goldmann, David Hogan,
Larry Jordan, Sean Penn, Charley Randazzo, Timothy White
czas: 01:20:37 + 00:25:41

opis:

The Platinum Collection is the first music video compilation by Canadian singer Shania Twain.
Released on November 6, 2001 by Mercury Nashville Records, the video consists of the music
videos from the singles from Twain's first three studio albums, Shania Twain (1993), The Woman
in Me (1995), and Come on Over (1997). With the exception of "When" (1998), which was released
exclusively to the United Kingdom, the collection included all of the singer's music videos at
the time. In 2004, the video was certified platinum by the Recording Industry Association of America
(RIAA) for the shipment of over 100,000 copies in the United States.

The Platinum Collection jest pierwszą kompilacją teledysków kanadyjskiej piosenkarki Shanii Twain.
Wydany w dniu 6 listopada 2001 roku przez Mercury Nashville Records, wideo składa się z kllipów
z singli z pierwszych trzech albumów studyjnych Twain, Shania Twain (1993), KThe Woman
in Me (1995), i Come on Over (1997). Z wyjątkiem "When" (1998), który został wydany
wyłącznie w Wielkiej Brytanii, kolekcja zawiera wszystkie teledyski piosenkarki z tego okresu
W 2004 roku film dostał platynową płytę od Recording Industry Association of America
(RIAA) za sprzedaż ponad 100.000 egzemplarzy w Stanach Zjednoczonych.

User image
User image
User image
User image

tracklist:

# 1. What Made You Say That
# 2. Dance with the One That Brought You
# 3. You Lay a Whole Lot of Love on Me
# 4. Whose Beds Have Your Boots Been Under?
# 5. Any Man of Mine
# 6. The Woman in Me (Needs the Man in You)
# 7. (If You're Not in It for Love) I'm Outta Here!
# 8. You Win My Love
# 9. No One Needs to Know
# 10. Home Ain't Where His Heart Is (Anymore)
# 11. God Bless the Child
# 12. Love Gets Me Every Time
# 13. Don't Be Stupid (You Know I Love You)
# 14. You're Still the One
# 15. Honey I'm Home
# 16. From This Moment On
# 17. That Don't Impress Me Much
# 18. Man! I Feel Like a Woman!
# 19. You've Got a Way
# 20. Come On Over
# 21. Rock This Country

bonus:

1. The Making of Shania by Stetson Photo-Shoot
Music Videos:
2. The Woman In Me (Needs The Man In You)
3. You’ve Got A Way (Album Version with “Notting Hill” Scenes)
4. Love Gets Me Every Time
5. I Ain’t No Quitter
6. Up! (Green CD Version)
7. Forever And For Always (Red Radio Edit)

dane techniczne:

VTS_01_1.VOB
Format : MPEG-PS
File size : 1 024 MiB
Duration : 20 min 11 s
Overall bit rate mode : Constant
Overall bit rate : 7 090 kb/s

Video
ID : 224 (0xE0)
Format : MPEG Video
Format version : Version 2
Format profile : Main@Main
Format settings, BVOP : Yes
Format settings, Matrix : Default
Format settings, GOP : M=3, N=13
Format settings, picture st : Frame
Duration : 20 min 11 s
Bit rate mode : Constant
Bit rate : 6 000 kb/s
Width : 720 pixels
Height : 480 pixels
Display aspect ratio : 4:3
Frame rate : 29.970 (30000/1001) FPS
Standard : NTSC
Color space : YUV
Chroma subsampling : 4:2:0
Bit depth : 8 bits
Scan type : Interlaced
Scan order : Top Field First
Compression mode : Lossy
Bits/(Pixel*Frame) : 0.579
Time code of first frame : 00:59:59:25
Time code source : Group of pictures header
GOP, Open/Closed : Open
Stream size : 867 MiB (85%)
Color primaries : BT.601 NTSC
Transfer characteristics : BT.601
Matrix coefficients : BT.601

Audio #1
ID : 189 (0xBD)-128 (0x80)
Format : AC-3
Format/Info : Audio Coding 3
Format settings, Endianness : Big
Muxing mode : DVD-Video
Duration : 20 min 11 s
Bit rate mode : Constant
Bit rate : 192 kb/s
Channel(s) : 2 channels
Channel positions : Front: L R
Sampling rate : 48.0 kHz
Frame rate : 31.250 FPS (1536 SPF)
Bit depth : 16 bits
Compression mode : Lossy
Stream size : 27.7 MiB (3%)
Service kind : Complete Main

Audio #2
ID : 189 (0xBD)-137 (0x89)
Format : DTS
Format/Info : Digital Theater Systems
Mode : 16
Format settings, Endianness : Big
Muxing mode : DVD-Video
Duration : 20 min 11 s
Bit rate mode : Constant
Bit rate : 755 kb/s
Channel(s) : 5 channels
Channel positions : Front: L C R, Side: L R
Sampling rate : 48.0 kHz
Frame rate : 93.750 FPS (512 SPF)
Bit depth : 24 bits
Compression mode : Lossy
Stream size : 109 MiB (11%)
Ocena użytkowników Help
Działa(0) | Fake(0) | Nie działa(0) | Wymagane hasło(0) | Wirus(0)
Statystyki seed/leech Ostatnio aktualizowane: 2020-04-04 12:30:09 [Aktualizuj]
Napisano: 27.11.2021 18:58
 
Nikt jeszcze nie skomentował tego torrenta... Może Ty to zrobisz?
Oświadczenie: Pliki prezentowane w katalogu nie znajdują się na serwerach wortalu. Użytkownicy zezwolili na ich udostępnienie. Administrator serwisu BitNova.info oraz właściciel serwera nie może ponieść konsekwencji za to co użytkownicy udostępniają i publikują. Pamiętaj! Nie możesz używać tego serwisu do rozpowszechniania lub ściągania materiałów do których nie masz odpowiednich praw lub licencji. Użytkownicy są odpowiedzialni za przestrzeganie tych zasad.

(Disclaimer: None files presented in the directory aren't hosted on servers vortal. Users allow their release. The administrator of site BitNova.info and owner of the server can not be held responsible for what its users post, or any other actions of its users. You may not use this site to distribute or download any material when you do not have the legal rights to do so. It is your own responsibility to adhere to these terms.)
» Zgłaszanie nadużyć / Abuse