Jedyny taki katalog polskich torrentów w sieci. Najlepsze torrenty w jednym miejscu.

Korzystanie ze strony jest darmowe. W przeciwieństwie do konkurencji nie kasujemy kont użytkowników bez ich wyraźnej prośby.


Torrent: Miasto Aniołów-City of Angels (1998)-alE13[BRRip 1080p x264 by alE13 AC3/DTS][Lektor i Napisy PL/Eng][Eng]

Miasto Aniołów-City of Angels (1998)-alE13[BRRip 1080p x264 by alE13 AC3/DTS][Lektor i Napisy PL/Eng][Eng] torrent
Dodał: alE13
29.09.2017 05:31
Kategoria: Fantasy

Rozmiar: 9.19 GB
Seed'ów: 0
Leecher'ów: 1
Pobrań: 0

Kondycja:
 


» Komentarze [0]
» Obserwuj
» Zgłoś plik
https://i.imgur.com/IjqdhdI.jpg

http://www.imdb.com/title/tt0120632/
http://www.filmweb.pl/Miasto.Aniolow

Audio DTS w osobnym pliku.
Plik zawiera Sample.

reżyseria: Brad Silberling
scenariusz: Peter Handke,Wim Wenders,Dana Stevens
gatunek: Fantasy,Melodramat
produkcja: Niemcy,USA
premiera: 10-04-1998
muzyka: Gabriel Yared
zdjęcia: John Seale
czas: 01:54:13

opis:

Inspired by the modern classic, Wings of Desire, City involves an angel (Cage) who is spotted by a doctor in an
operating room. Franz plays Cage's buddy who somehow knows a lot about angels.

Przejmująca historia pewnego anioła, który zakochuje się w pięknej lekarce. W szpitalu w Los Angeles leży ciężko
chory na serce pacjent. Przy jego łóżku pojawia się anioł, Seth. W tym samym czasie umiera pacjent doktor
Maggie Rice. Młoda lekarka bardzo przeżywa śmierć mężczyzny. Seth obserwuje ją i zakochuje się. Postanawia powrócić
do świata żywych i związać swoją przyszłość z Maggie. Ale nie jest im dane wspólne szczęście.

https://i.imgur.com/9qlwBAd.jpg
https://i.imgur.com/HWGY62r.jpg
https://i.imgur.com/ISpkznT.jpg
https://i.imgur.com/gNvlIKu.jpg

obsada:

Nicolas Cage, Meg Ryan, Andre Braugher

dane techniczne:

Audio:

City of Angels (1998)-alE13.mka

Hash: 56772E6B3F28B23B
Format: Matroska
Czas: 01:54:13.515
Rozmiar: 1.21 GiB (1294112603)

Audio (0):
Kodek: (DTS) DTS
Format: DTS
Kanały: 6 channels
BitRate: 1 509 kb/s
Tytuł: City of Angels (1998)-alE13_DTS
Język: English


Napisy (0):
Kodek: (S_TEXT/UTF8) UTF-8
Format: UTF-8
Język: English (City of Angels (1998)-alE13_SRT)

Video:

City of Angels (1998)-alE13.mkv
Format : Matroska
Format version : Version 4 / Version 2
File size : 7.82 GiB
Duration : 1 h 54 min
Overall bit rate : 9 801 kb/s
Movie name : City of Angels (1998)-alE13
Encoded date : UTC 2017-09-29 02:49:11
Writing application : mkvmerge v8.1.0 ('Psychedelic Postcard') 64bit
Writing library : libebml v1.3.1 + libmatroska v1.4.2
Cover : Yes
Attachments : Cover.jpg

Video
ID : 2
Format : AVC
Format/Info : Advanced Video Codec
Format profile : High@L4.1
Format settings, CABAC : Yes
Format settings, RefFrames : 2 frames
Codec ID : V_MPEG4/ISO/AVC
Duration : 1 h 54 min
Bit rate : 9 097 kb/s
Width : 1 920 pixels
Height : 800 pixels
Display aspect ratio : 2.40:1
Frame rate mode : Constant
Frame rate : 23.976 (24000/1001) FPS
Color space : YUV
Chroma subsampling : 4:2:0
Bit depth : 8 bits
Scan type : Progressive
Bits/(Pixel*Frame) : 0.247
Stream size : 7.26 GiB (93%)
Title : City of Angels (1998)-alE13
Writing library : x264 core 142
Default : Yes
Forced : No
Color range : Limited
Color primaries : BT.709
Transfer characteristics : BT.709
Matrix coefficients : BT.709

Audio #1
ID : 1
Format : AC-3
Format/Info : Audio Coding 3
Format settings, Endianness : Big
Codec ID : A_AC3
Duration : 1 h 54 min
Bit rate mode : Constant
Bit rate : 256 kb/s
Channel(s) : 2 channels
Channel positions : Front: L R
Sampling rate : 48.0 kHz
Frame rate : 31.250 FPS (1536 SPF)
Bit depth : 16 bits
Compression mode : Lossy
Stream size : 209 MiB (3%)
Title : City of Angels (1998)-alE13_AC3
Language : Polish
Service kind : Complete Main
Default : Yes
Forced : No

Audio #2
ID : 3
Format : AC-3
Format/Info : Audio Coding 3
Format settings, Endianness : Big
Codec ID : A_AC3
Duration : 1 h 54 min
Bit rate mode : Constant
Bit rate : 448 kb/s
Channel(s) : 6 channels
Channel positions : Front: L C R, Side: L R, LFE
Sampling rate : 48.0 kHz
Frame rate : 31.250 FPS (1536 SPF)
Bit depth : 16 bits
Compression mode : Lossy
Stream size : 366 MiB (5%)
Title : City of Angels (1998)-alE13_AC3
Language : English
Service kind : Complete Main
Default : No
Forced : No

Text #1
ID : 4
Format : UTF-8
Codec ID : S_TEXT/UTF8
Codec ID/Info : UTF-8 Plain Text
Duration : 1 h 45 min
Bit rate : 26 b/s
Count of elements : 970
Stream size : 20.1 KiB (0%)
Title : City of Angels (1998)-alE13_srt
Language : Polish
Default : No
Forced : No

Text #2
ID : 5
Format : UTF-8
Codec ID : S_TEXT/UTF8
Codec ID/Info : UTF-8 Plain Text
Duration : 1 h 53 min
Bit rate : 34 b/s
Count of elements : 1083
Stream size : 28.6 KiB (0%)
Title : City of Angels (1998)-alE13_srt
Language : English
Default : No
Forced : No

Menu
00:00:00.000 : en:Chapter 01
00:10:13.571 : en:Chapter 02
00:20:24.556 : en:Chapter 03
00:31:05.696 : en:Chapter 04
00:41:18.934 : en:Chapter 05
00:51:08.273 : en:Chapter 06
01:01:21.052 : en:Chapter 07
01:11:53.434 : en:Chapter 08
01:23:58.867 : en:Chapter 09
01:33:18.716 : en:Chapter 10
01:41:57.444 : en:Chapter 11
01:47:34.448 : en:Chapter 12
01:54:13.262 : en:Chapter 13
Ocena użytkowników Help
Działa(0) | Fake(0) | Nie działa(0) | Wymagane hasło(0) | Wirus(0)
Statystyki seed/leech Ostatnio aktualizowane: 2019-04-08 20:40:30 [Aktualizuj]
Napisano: 24.01.2022 02:05
 
Nikt jeszcze nie skomentował tego torrenta... Może Ty to zrobisz?
Oświadczenie: Pliki prezentowane w katalogu nie znajdują się na serwerach wortalu. Użytkownicy zezwolili na ich udostępnienie. Administrator serwisu BitNova.info oraz właściciel serwera nie może ponieść konsekwencji za to co użytkownicy udostępniają i publikują. Pamiętaj! Nie możesz używać tego serwisu do rozpowszechniania lub ściągania materiałów do których nie masz odpowiednich praw lub licencji. Użytkownicy są odpowiedzialni za przestrzeganie tych zasad.

(Disclaimer: None files presented in the directory aren't hosted on servers vortal. Users allow their release. The administrator of site BitNova.info and owner of the server can not be held responsible for what its users post, or any other actions of its users. You may not use this site to distribute or download any material when you do not have the legal rights to do so. It is your own responsibility to adhere to these terms.)
» Zgłaszanie nadużyć / Abuse