Jedyny taki katalog polskich torrentów w sieci. Najlepsze torrenty w jednym miejscu.

Korzystanie ze strony jest darmowe. W przeciwieństwie do konkurencji nie kasujemy kont użytkowników bez ich wyraźnej prośby.


Torrent: Piraci z Karaibów: Zemsta Salazara 3D Pirates of the Caribbean: Dead Men Tell No Tales *2017* (16:9) [1080p 3D Half Over Under DTS HD MA 7 1 AC3 BluRay x264 SONDA] [Dubbing i Napisy PL] [ENG]

Piraci z Karaibów: Zemsta Salazara 3D   Pirates of the Caribbean: Dead Men Tell No Tales *2017* (16:9) [1080p 3D Half Over Under DTS HD MA 7 1 AC3 BluRay x264 SONDA] [Dubbing i Napisy PL] [ENG] torrent
Dodał: Ishimura
25.09.2017 14:45
Kategoria: Fantasy

Rozmiar: 17.42 GB
Seed'ów: 1
Leecher'ów: 1
Pobrań: 9

Kondycja:
 


» Komentarze [0]
» Obserwuj
» Zgłoś plik
User image

Film w wersji 3D Over-Under.
Do odtworzenia filmu WYMAGANY odpowiedni sprzęt (TV 3D)
==========================================
UWAGA: Po prawej i lewej stronie obraz został wycięty do 248p,
co umożliwia wyświetlanie na telewizorze pełnoekranowego obrazu
(bez czarnych pasów) w formacie (16:9) bez zmiany proporcji.
Taki zabieg moim zdaniem poprawia dużo bardziej efekt 3D.
Jedyną wadą jest przycięcie obrazu po obu bokach ekranu,
no ale niestety coś za coś:)
Wszystkich chętnych zapraszam do przetestowania !!!!!
================================================


gatunek: Fantasy,Przygodowy
produkcja: Australia,USA
premiera: 26 maja 2017 (Polska) 11 maja 2017 (świat)
reżyseria: Joachim Ronning,Espen Sandberg
scenariusz: Jeff Nathanson

http://www.imdb.com/title/tt1790809/

Obsada:

Cezary Pazura ... Jack Sparrow (polski dubbing)
Oliwia Nazimek ... Carina Smyth (polski dubbing)
Józef Pawłowski ... Henry (polski dubbing)
Adam Ferency ... Kapitan Barbossa (polski dubbing)
Jan Frycz ... Kapitan Salazar (polski dubbing)
Mariusz Saniternik ... Gibbs (polski dubbing)
Jan Jankowski ... Scarfield (polski dubbing)
Michał Jarmicki ... Mullroy (polski dubbing)
Jarosław Gruda ... Scrum (polski dubbing)

Opis:

Nikczemny kapitan Salazar (Javier Bardem) wraz ze swoją załogą piratów-zjaw ucieka z Diabelskiego Trójkąta i poprzysięga zemstę na wszystkich piratach. Nieuniknionej zagładzie próbuje zapobiec Jack Sparrow (Johnny Depp). Dowódca "Czarnej Perły" wyrusza w podróż, by odnaleźć Trójząb Posejdona, mistyczny artefakt dający władzę nad morzami, i użyć go w walce przeciwko Salazarowi.

Storyline:

Captain Jack Sparrow finds the winds of ill-fortune blowing even more strongly when deadly ghost pirates led by his old nemesis, the terrifying Captain Salazar, escape from the Devil's Triangle, determined to kill every pirate at sea...including him. Captain Jack's only hope of survival lies in seeking out the legendary Trident of Poseidon, a powerful artifact that bestows upon its possessor total control over the seas.

Screenshot:

User image
User image
User image
User image


Dane techniczne:

General
Format : Matroska
Format version : Version 2
File size : 17.4 GiB
Duration : 2 h 9 min
Overall bit rate : 19.3 Mb/s
Movie name : Pirates.of.the.Caribbean.Dead.Men.Tell.No.Tales.3D.PL.2017.HOU.BDRip.1080p.Sonda
Encoded date : UTC 2017-09-22 10:03:53
Writing application : mkvmerge v5.7.0 ('The Whirlwind') built on Jul 8 2012 20:08:51
Writing library : libebml v1.2.3 + libmatroska v1.3.0

Video
ID : 1
Format : AVC
Format/Info : Advanced Video Codec
Format profile : High@L4.1
Format settings, CABAC : Yes
Format settings, ReFrames : 4 frames
Codec ID : V_MPEG4/ISO/AVC
Duration : 2 h 9 min
Nominal bit rate : 12.5 Mb/s
Width : 1 920 pixels
Height : 1 080 pixels
Display aspect ratio : 16:9
Frame rate mode : Constant
Frame rate : 23.976 (24000/1001) FPS
Color space : YUV
Chroma subsampling : 4:2:0
Bit depth : 8 bits
Scan type : Progressive
Bits/(Pixel*Frame) : 0.251
Title : Rip by Sonda
Writing library : x264 core 148 r2744 b97ae06
Encoding settings : cabac=1 / ref=4 / deblock=1:-1:-1 / rc=2pass
Default : Yes
Forced : No
Color range : Limited
Color primaries : BT.709
Transfer characteristics : BT.709
Matrix coefficients : BT.709

Audio #1
ID : 2
Format : AC-3
Format/Info : Audio Coding 3
Format settings, Endianness : Big
Codec ID : A_AC3
Duration : 2 h 9 min
Bit rate mode : Constant
Bit rate : 640 kb/s
Channel(s) : 6 channels
Channel positions : Front: L C R, Side: L R, LFE
Sampling rate : 48.0 kHz
Frame rate : 31.250 FPS (1536 spf)
Bit depth : 16 bits
Compression mode : Lossy
Stream size : 591 MiB (3%)
Title : AC3 5.1 Dubbing PL z Bluray
Language : Polish
Service kind : Complete Main
Default : Yes
Forced : Yes

Audio #2
ID : 3
Format : AC-3
Format/Info : Audio Coding 3
Format settings, Endianness : Big
Codec ID : A_AC3
Duration : 2 h 9 min
Bit rate mode : Constant
Bit rate : 640 kb/s
Channel(s) : 6 channels
Channel positions : Front: L C R, Side: L R, LFE
Sampling rate : 48.0 kHz
Frame rate : 31.250 FPS (1536 spf)
Bit depth : 16 bits
Compression mode : Lossy
Stream size : 591 MiB (3%)
Title : AC3 5.1 ENG
Language : English
Service kind : Complete Main
Default : No
Forced : No

Audio #3
ID : 4
Format : DTS
Format/Info : Digital Theater Systems
Format profile : MA / Core
Mode : 16
Format settings, Endianness : Big
Codec ID : A_DTS
Duration : 2 h 9 min
Bit rate mode : Variable / Constant
Bit rate : 5503 / 1 509 kb/s
Channel(s) : 8 channels / 6 channels
Channel positions : Front: L C R, Side: L R, Back: L R, LFE / Front: L C R, Side: L R, LFE
Sampling rate : 48.0 kHz
Frame rate : 93.750 FPS (512 spf)
Bit depth : 24 bits
Compression mode : Lossless / Lossy
Title : DTS-HD MA 7.1 ENG
Language : English
Default : No
Forced : No

Text #1
ID : 5
Format : UTF-8
Codec ID : S_TEXT/UTF8
Codec ID/Info : UTF-8 Plain Text
Title : napisy PL 2D
Language : Polish
Default : No
Forced : No

Text #2
ID : 6
Format : UTF-8
Codec ID : S_TEXT/UTF8
Codec ID/Info : UTF-8 Plain Text
Title : napisy ENG 2D
Language : English
Default : No
Forced : No

Text #3
ID : 7
Format : PGS
Muxing mode : zlib
Codec ID : S_HDMV/PGS
Codec ID/Info : Picture based subtitle format used on BDs/HD-DVDs
Title : napisy PL 3D
Language : Polish
Default : No
Forced : No

Text #4
ID : 8
Format : PGS
Muxing mode : zlib
Codec ID : S_HDMV/PGS
Codec ID/Info : Picture based subtitle format used on BDs/HD-DVDs
Title : napisy ENG 3D
Language : English
Default : No
Forced : No

Source:
A/V- BDRemux 2D/3D
Dubbing PL - BD
Thanks - Sonda

Ocena użytkowników Help
Działa(0) | Fake(0) | Nie działa(0) | Wymagane hasło(0) | Wirus(0)
Statystyki seed/leech Ostatnio aktualizowane: 2021-02-19 12:34:50 [Aktualizuj]
Napisano: 25.06.2021 09:43
 
Nikt jeszcze nie skomentował tego torrenta... Może Ty to zrobisz?
Oświadczenie: Pliki prezentowane w katalogu nie znajdują się na serwerach wortalu. Użytkownicy zezwolili na ich udostępnienie. Administrator serwisu BitNova.info oraz właściciel serwera nie może ponieść konsekwencji za to co użytkownicy udostępniają i publikują. Pamiętaj! Nie możesz używać tego serwisu do rozpowszechniania lub ściągania materiałów do których nie masz odpowiednich praw lub licencji. Użytkownicy są odpowiedzialni za przestrzeganie tych zasad.

(Disclaimer: None files presented in the directory aren't hosted on servers vortal. Users allow their release. The administrator of site BitNova.info and owner of the server can not be held responsible for what its users post, or any other actions of its users. You may not use this site to distribute or download any material when you do not have the legal rights to do so. It is your own responsibility to adhere to these terms.)
» Zgłaszanie nadużyć / Abuse