Jedyny taki katalog polskich torrentów w sieci. Najlepsze torrenty w jednym miejscu.

Korzystanie ze strony jest darmowe. W przeciwieństwie do konkurencji nie kasujemy kont użytkowników bez ich wyraźnej prośby.

Torrent: Strażnicy Galaktyki vol.2-Guardians of the Galaxy Vol.2 3D (2017)[BRRip 1080p x264 by alE13 AC3/DTS][Dubbing i Napisy PL/Eng][Eng]

Strażnicy Galaktyki vol.2-Guardians of the Galaxy Vol.2 3D (2017)[BRRip 1080p x264 by alE13 AC3/DTS][Dubbing i Napisy PL/Eng][Eng] torrent
Dodał: alE13
24.08.2017 19:30
Kategoria: Sci-Fi

Rozmiar: 12.28 GB
Seed'ów: 0
Leecher'ów: 0
Pobrań: 0

Kondycja:
 


» Komentarze [0]
» Obserwuj
» Zgłoś plik
User image

http://www.imdb.com/title/tt3896198/
http://www.filmweb.pl/film/Stra%C5%BCnicy+Galaktyki+vol.+2-2017-722146

Film w wersji 3D Half Over/Under.
Plik zawiera Sample.
Audio PL kinowe, DTS 7.1ch w osobnym pliku.


reżyseria: James Gunn
scenariusz: James Gunn
gatunek: Akcja,Sci-Fi
produkcja: USA
premiera: 19-04-2017
muzyka: Tyler Bates
zdjęcia: Henry Braham
czas: 2h 15min

opis:

The Guardians must fight to keep their newfound family together as they unravel the mystery of Peter Quill's true parentage.

Peter Quill z drużyną wyrzutków kontynuuje podróż przez kosmos i jako obrońca galaktyki stawia czoła nowym niebezpieczeństwom.
Poznaje także prawdę o swoim ojcu oraz jego dziedzictwie.

https://i.imgur.com/aZXGrgs.jpg
https://i.imgur.com/hkjgnjo.jpg
https://i.imgur.com/w51BsmZ.jpg
https://i.imgur.com/rhQnRWn.jpg

User image
User image
User image
User image

obsada:

Chris Pratt, Zoe Saldana, Dave Bautista

hospitably:

Vin Diesel, Sylvester Stallone, Kurt Russell

dane techniczne:

audio:

Guardians of the Galaxy Vol. 2 3D (2017)-alE13_DTS.mka

Hash: 34FDB28DC70738C4
Format: Matroska
Czas: 02:15:46.187
Rozmiar: 4.61 GiB (4947128447)

Audio (0):
Kodek: (DTS-HD) DTS-HD
Format: DTS
Kanały: 8 channels / 6 channels
BitRate: 4 842 kb/s / 1 509 kb/s
Język: English


Napisy (0):
Kodek: (S_HDMV/PGS) PGS
Format: PGS
Język: English

movie:

Guardians of the Galaxy Vol. 2 3D (2017)-alE13.mkv
Format : Matroska
Format version : Version 4 / Version 2
File size : 7.63 GiB
Duration : 2 h 15 min
Overall bit rate : 8 044 kb/s
Movie name : Guardians of the Galaxy Vol. 2 3D (2017)-alE13_DTS
Encoded date : UTC 2017-08-24 16:49:55
Writing application : mkvmerge v8.1.0 ('Psychedelic Postcard') 64bit
Writing library : libebml v1.3.1 + libmatroska v1.4.2
Cover : Yes
Attachments : Cover.jpg

Video
ID : 1
Format : AVC
Format/Info : Advanced Video Codec
Format profile : High@L4.1
Format settings, CABAC : Yes
Format settings, RefFrames : 2 frames
Codec ID : V_MPEG4/ISO/AVC
Duration : 2 h 15 min
Bit rate : 7 128 kb/s
Width : 1 920 pixels
Height : 1 012 pixels
Display aspect ratio : 1.897
Frame rate mode : Constant
Frame rate : 23.976 (24000/1001) FPS
Color space : YUV
Chroma subsampling : 4:2:0
Bit depth : 8 bits
Scan type : Progressive
Bits/(Pixel*Frame) : 0.153
Stream size : 6.76 GiB (89%)
Title : Guardians of the Galaxy Vol. 2 3D (2017)-alE13
Writing library : x264 core 142
Default : Yes
Forced : No
Color range : Limited
Color primaries : BT.709
Transfer characteristics : BT.709
Matrix coefficients : BT.709

Audio #1
ID : 2
Format : AC-3
Format/Info : Audio Coding 3
Format settings, Endianness : Big
Codec ID : A_AC3
Duration : 2 h 15 min
Bit rate mode : Constant
Bit rate : 640 kb/s
Channel(s) : 6 channels
Channel positions : Front: L C R, Side: L R, LFE
Sampling rate : 48.0 kHz
Frame rate : 31.250 FPS (1536 SPF)
Bit depth : 16 bits
Compression mode : Lossy
Stream size : 621 MiB (8%)
Title : Guardians of the Galaxy Vol. 2 3D (2017)-alE13_AC3
Language : English
Service kind : Complete Main
Default : No
Forced : No

Audio #2
ID : 3
Format : AC-3
Format/Info : Audio Coding 3
Format settings, Endianness : Big
Codec ID : A_AC3
Duration : 2 h 15 min
Bit rate mode : Constant
Bit rate : 256 kb/s
Channel(s) : 2 channels
Channel positions : Front: L R
Sampling rate : 48.0 kHz
Frame rate : 31.250 FPS (1536 SPF)
Bit depth : 16 bits
Compression mode : Lossy
Stream size : 249 MiB (3%)
Title : Guardians of the Galaxy Vol. 2 3D (2017)-alE13_AC3
Language : Polish
Service kind : Complete Main
Default : Yes
Forced : No

Text #1
ID : 4
Format : UTF-8
Codec ID : S_TEXT/UTF8
Codec ID/Info : UTF-8 Plain Text
Duration : 2 h 14 min
Bit rate : 43 b/s
Count of elements : 1279
Stream size : 42.8 KiB (0%)
Title : Guardians of the Galaxy Vol. 2 3D (2017)-alE13
Language : Polish
Default : No
Forced : No

Text #2
ID : 5
Format : VobSub
Muxing mode : zlib
Codec ID : S_VOBSUB
Codec ID/Info : Picture based subtitle format used on DVDs
Duration : 2 h 14 min
Bit rate : 6 770 b/s
Count of elements : 1279
Stream size : 6.53 MiB (0%)
Title : Guardians of the Galaxy Vol. 2 3D (2017)-alE13_VobSub
Language : Polish
Default : No
Forced : No

Text #3
ID : 6
Format : UTF-8
Codec ID : S_TEXT/UTF8
Codec ID/Info : UTF-8 Plain Text
Duration : 2 h 14 min
Bit rate : 54 b/s
Count of elements : 1973
Stream size : 54.3 KiB (0%)
Title : Guardians of the Galaxy Vol. 2 3D (2017)-alE13_srt
Language : English
Default : No
Forced : No

Text #4
ID : 7
Format : VobSub
Muxing mode : zlib
Codec ID : S_VOBSUB
Codec ID/Info : Picture based subtitle format used on DVDs
Duration : 2 h 14 min
Bit rate : 8 913 b/s
Count of elements : 1973
Stream size : 8.60 MiB (0%)
Title : Guardians of the Galaxy Vol. 2 3D (2017)-alE13_VobSub
Language : English
Default : No
Forced : No

Menu
00:00:00.000 : en:(01)00:00:00:000
00:09:56.177 : en:(02)00:09:56:177
00:15:10.116 : en:(03)00:15:10:116
00:22:14.082 : en:(04)00:22:14:082
00:32:33.701 : en:(05)00:32:33:701
00:36:52.126 : en:(06)00:36:52:126
00:42:29.170 : en:(07)00:42:29:170
00:48:03.463 : en:(08)00:48:03:463
00:53:18.903 : en:(09)00:53:18:903
00:58:45.938 : en:(10)00:58:45:938
01:05:52.239 : en:(11)01:05:52:239
01:11:12.434 : en:(12)01:11:12:434
01:18:43.612 : en:(13)01:18:43:591
01:23:55.341 : en:(14)01:23:55:320
01:30:24.773 : en:(15)01:30:24:752
01:39:36.198 : en:(16)01:39:36:177
01:47:06.232 : en:(17)01:47:06:211
01:54:21.625 : en:(18)01:54:21:604
01:58:53.755 : en:(19)01:58:53:708
02:07:13.505 : en:(20)02:07:13:458
Ocena użytkowników Help
Działa(0) | Fake(0) | Nie działa(0) | Wymagane hasło(0) | Wirus(0)
Statystyki seed/leech Ostatnio aktualizowane: 2023-01-20 01:27:07 [Aktualizuj]


Napisano: 29.01.2023 20:27
 
Nikt jeszcze nie skomentował tego torrenta... Może Ty to zrobisz?
Oświadczenie: Pliki prezentowane w katalogu nie znajdują się na serwerach wortalu. Użytkownicy zezwolili na ich udostępnienie. Administrator serwisu BitNova.info oraz właściciel serwera nie może ponieść konsekwencji za to co użytkownicy udostępniają i publikują. Pamiętaj! Nie możesz używać tego serwisu do rozpowszechniania lub ściągania materiałów do których nie masz odpowiednich praw lub licencji. Użytkownicy są odpowiedzialni za przestrzeganie tych zasad.

(Disclaimer: None files presented in the directory aren't hosted on servers vortal. Users allow their release. The administrator of site BitNova.info and owner of the server can not be held responsible for what its users post, or any other actions of its users. You may not use this site to distribute or download any material when you do not have the legal rights to do so. It is your own responsibility to adhere to these terms.)
» Zgłaszanie nadużyć / Abuse