Jedyny taki katalog polskich torrentów w sieci. Najlepsze torrenty w jednym miejscu.

Korzystanie ze strony jest darmowe. W przeciwieństwie do konkurencji nie kasujemy kont użytkowników bez ich wyraźnej prośby.


Torrent: Król Artur: Legenda Miecza-King Arthur: Legend of the Sword 3D (2017)[BRRip 1080p x264 by alE13 AC3/DTS][Lektor i Napisy PL/Eng/Multi][Eng]

Król Artur: Legenda Miecza-King Arthur: Legend of the Sword 3D (2017)[BRRip 1080p x264 by alE13 AC3/DTS][Lektor i Napisy PL/Eng/Multi][Eng] torrent
Dodał: alE13
19.08.2017 07:04
Kategoria: Fantasy

Rozmiar: 10.00 GB
Seed'ów: 0
Leecher'ów: 0
Pobrań: 0

Kondycja:
 


» Komentarze [0]
» Obserwuj
» Zgłoś plik
User image

http://www.imdb.com/title/tt1972591/
http://www.filmweb.pl/film/Kr%C3%B3l+Artur%3A+Legenda+miecza-2017-568216

Film w wersji 3D Half Over/Under
Audio DTS MA/Core w osobnym pliku.
Plik zawiera Sample.


reżyseria: Guy Ritchie
scenariusz: Joby Harolduy,Ritchie,Lionel Wigram
gatunek: Fantsy,Przygodowy
produkcja: Australia,USA,Wielka Brytania
premiera: 07-05-2017
muzyka: Daniel Pemberton
zdjęcia: John Mathieson
czas: 02:06:13

opis:

Robbed of his birthright, Arthur comes up the hard way in the back alleys of the city. But once he pulls the sword from
the stone, he is forced to acknowledge his true legacy - whether he likes it or not.

Młody Artur zdobywa miecz Excalibur i wiedzę na temat swojego królewskiego pochodzenia. Przyłącza się do rebelii, aby
pokonać tyrana, który zamordował jego rodziców.

User image
User image
User image
User image

obsada:

Charlie Hunnam, Astrid Berges-Frisbey, Jude Law

dane techiczne:

Audio
ID : 1
Format : DTS
Format/Info : Digital Theater Systems
Format profile : MA / Core

Video

King Arthur-Legend of the Sword 3D (2017)-alE13.mkv
Format : Matroska
Format version : Version 4 / Version 2
File size : 7.91 GiB
Duration : 2 h 6 min
Overall bit rate : 8 975 kb/s
Movie name : King Arthur: Legend of the Sword 3D (2017)-alE13
Encoded date : UTC 2017-08-18 18:33:47
Writing application : mkvmerge v8.1.0 ('Psychedelic Postcard') 64bit
Writing library : libebml v1.3.1 + libmatroska v1.4.2
Cover : Yes
Attachments : Cover.jpg

Video
ID : 1
Format : AVC
Format/Info : Advanced Video Codec
Format profile : High@L4.1
Format settings, CABAC : Yes
Format settings, RefFrames : 2 frames
Codec ID : V_MPEG4/ISO/AVC
Duration : 2 h 6 min
Bit rate : 8 066 kb/s
Width : 1 920 pixels
Height : 800 pixels
Display aspect ratio : 2.40:1
Frame rate mode : Constant
Frame rate : 23.976 (24000/1001) FPS
Color space : YUV
Chroma subsampling : 4:2:0
Bit depth : 8 bits
Scan type : Progressive
Bits/(Pixel*Frame) : 0.219
Stream size : 7.11 GiB (90%)
Title : King Arthur: Legend of the Sword 3D (2017)-alE13
Writing library : x264 core 142
Default : Yes
Forced : No
Color range : Limited
Color primaries : BT.709
Transfer characteristics : BT.709
Matrix coefficients : BT.709

Audio #1
ID : 2
Format : AC-3
Format/Info : Audio Coding 3
Format settings, Endianness : Big
Codec ID : A_AC3
Duration : 2 h 6 min
Bit rate mode : Constant
Bit rate : 448 kb/s
Channel(s) : 6 channels
Channel positions : Front: L C R, Side: L R, LFE
Sampling rate : 48.0 kHz
Frame rate : 31.250 FPS (1536 SPF)
Bit depth : 16 bits
Compression mode : Lossy
Stream size : 404 MiB (5%)
Title : King Arthur: Legend of the Sword 3D (2017)-alE13_AC3
Language : English
Service kind : Complete Main
Default : No
Forced : No

Audio #2
ID : 3
Format : AC-3
Format/Info : Audio Coding 3
Format settings, Endianness : Big
Codec ID : A_AC3
Duration : 2 h 6 min
Bit rate mode : Constant
Bit rate : 448 kb/s
Channel(s) : 6 channels
Channel positions : Front: L C R, Side: L R, LFE
Sampling rate : 48.0 kHz
Frame rate : 31.250 FPS (1536 SPF)
Bit depth : 16 bits
Compression mode : Lossy
Stream size : 404 MiB (5%)
Title : King Arthur: Legend of the Sword 3D (2017)-alE13_AC3
Language : Polish
Service kind : Complete Main
Default : Yes
Forced : No

Text #1
ID : 4
Format : UTF-8
Codec ID : S_TEXT/UTF8
Codec ID/Info : UTF-8 Plain Text
Duration : 2 h 3 min
Bit rate : 42 b/s
Count of elements : 1255
Stream size : 38.2 KiB (0%)
Title : King Arthur: Legend of the Sword 3D (2017)-alE13_SRT
Language : English
Default : No
Forced : No

Text #2
ID : 5
Format : UTF-8
Codec ID : S_TEXT/UTF8
Codec ID/Info : UTF-8 Plain Text
Duration : 1 h 57 min
Bit rate : 36 b/s
Count of elements : 779
Stream size : 31.6 KiB (0%)
Title : King Arthur: Legend of the Sword 3D (2017)-alE13_SRT
Language : Polish
Default : No
Forced : No

Text #3
ID : 6
Format : VobSub
Muxing mode : zlib
Codec ID : S_VOBSUB
Codec ID/Info : Picture based subtitle format used on DVDs
Duration : 1 h 57 min
Bit rate : 5 532 b/s
Count of elements : 779
Stream size : 4.64 MiB (0%)
Title : King Arthur: Legend of the Sword 3D (2017)-alE13_VobSub
Language : Polish
Default : No
Forced : No

Text #4
ID : 7
Format : VobSub
Muxing mode : zlib
Codec ID : S_VOBSUB
Codec ID/Info : Picture based subtitle format used on DVDs
Duration : 2 h 3 min
Bit rate : 6 394 b/s
Count of elements : 1255
Stream size : 5.64 MiB (0%)
Title : King Arthur: Legend of the Sword 3D (2017)-alE13_VobSub
Language : English
Default : No
Forced : No

Menu
00:00:00.000 : en:(01)00:00:00:000
00:12:43.220 : en:(02)00:12:43:220
00:21:05.346 : en:(03)00:21:05:346
00:32:32.659 : en:(04)00:32:32:659
00:43:09.378 : en:(05)00:43:09:378
00:56:47.987 : en:(06)00:56:47:987
01:06:48.545 : en:(07)01:06:48:545
01:14:13.030 : en:(08)01:14:13:030
01:23:44.394 : en:(09)01:23:44:394
01:36:36.791 : en:(10)01:36:36:791
01:46:57.243 : en:(11)01:46:57:243
01:58:58.797 : en:(12)01:58:58:797
Ocena użytkowników Help
Działa(0) | Fake(0) | Nie działa(0) | Wymagane hasło(0) | Wirus(0)
Statystyki seed/leech Ostatnio aktualizowane: 2020-11-03 10:49:22 [Aktualizuj]
Napisano: 09.05.2021 09:38
 
Nikt jeszcze nie skomentował tego torrenta... Może Ty to zrobisz?
Oświadczenie: Pliki prezentowane w katalogu nie znajdują się na serwerach wortalu. Użytkownicy zezwolili na ich udostępnienie. Administrator serwisu BitNova.info oraz właściciel serwera nie może ponieść konsekwencji za to co użytkownicy udostępniają i publikują. Pamiętaj! Nie możesz używać tego serwisu do rozpowszechniania lub ściągania materiałów do których nie masz odpowiednich praw lub licencji. Użytkownicy są odpowiedzialni za przestrzeganie tych zasad.

(Disclaimer: None files presented in the directory aren't hosted on servers vortal. Users allow their release. The administrator of site BitNova.info and owner of the server can not be held responsible for what its users post, or any other actions of its users. You may not use this site to distribute or download any material when you do not have the legal rights to do so. It is your own responsibility to adhere to these terms.)
» Zgłaszanie nadużyć / Abuse