Jedyny taki katalog polskich torrentów w sieci. Najlepsze torrenty w jednym miejscu.

Korzystanie ze strony jest darmowe. W przeciwieństwie do konkurencji nie kasujemy kont użytkowników bez ich wyraźnej prośby.


Torrent: Warcraft: Początek 3D Warcraft *2016* [mini HD 1080p 3D Half Over Under AC3 PLSUBBED BluRay x264 SONDA] [ENG] [AT TEAM]

Warcraft: Początek 3D   Warcraft *2016* [mini HD 1080p 3D Half Over Under AC3 PLSUBBED BluRay x264 SONDA] [ENG] [AT TEAM] torrent
Dodał: Ishimura
01.08.2017 12:57
Kategoria: Fantasy

Rozmiar: 3.96 GB
Seed'ów: 1
Leecher'ów: 1
Pobrań: 0

Kondycja:
 


» Komentarze [0]
» Obserwuj
» Zgłoś plik
User image

Film w wersji 3D Over-Under
Do odtworzenia filmu WYMAGANY odpowiedni sprzęt (TV 3D).
==========================================
UWAGA: Napisy na stałe wtopione w film. Zapraszam Wszystkich chętnych !!!!!!
=====================================================

Kopia mini-HD 1080p = 3,95 GB

gatunek: Fantasy,Przygodowy
produkcja: USA
premiera: 10 czerwca 2016 (Polska) 25 maja 2016 (świat)
reżyseria: Duncan Jones
scenariusz: Charles Leavitt,Duncan Jones

http://www.imdb.com/title/tt0803096/

Obsada:

Travis Fimmel ... Anduin Lothar
Paula Patton ... Garona
Ben Foster ... Medivh
Dominic Cooper ... Llane Wrynn
Toby Kebbell ... Durotan / Antonidas
Ben Schnetzer ... Khadgar
Robert Kazinsky ... Orgrim

Opis:

Nadchodzi wojna! Wojna, jakiej nie widział świat. Żaden ze światów. Spokój Azeroth zostaje zaburzony miażdżącym atakiem Orków, którzy przeczuwają, że ich cywilizacja dobiega końca. Obie armie zetrą się w spektakularnej wojnie, jedna zostanie zniszczona, druga zgładzona. Ale wojna ma wiele twarzy, a walczyć musi każdy.
Film inspirowany kultową grą "Warcraft". Dwa zwaśnione królestwa - zamieszkiwane przez ludzi Azeroth (Przymierze) i świat orków Draenor (Horda) - w walce przeciw sobie. Przymierze walczy o zachowanie porządku i bezpieczeństwo ludzi, Horda zaś o przetrwanie zagrożonego gatunku orków. Wzorem gry, twórcy filmu nie opowiadają się po żadnej ze stron. To widz musi zdecydować, któremu królestwu kibicuje. Film nie odwołując się bezpośrednio do żadnej konkretnej części gry, obejmuje całość historii.

Storyline:

When the world of the Orcs Draenor is being destroyed by the evil fel magic that uses life-force, the powerful warlock Gul'dan creates a portal to the world of Azeroth and forms the Horde with members of the Orc clans. He also captures many prisoners to keep the portal. The king of Azeroth Llane Wrynn and his brother-in-law Anduin Lothar are informed by the apprentice of magician Khadgar that he has found fel magic in dead bodies and the king decides to summon the Guardian of Tirisfal Medivh to protect his kingdom. Lothar and Khadgar head Kharazhan to meet Medivh and a shadow points a book to Khagdar and he takes it and hides. Anduin, Khadgar and Medivh and a group of soldiers are attacked by Orcs and they capture the slave Garona, who is released by King Llane, and she shows the location of the portal. Garona is contacted by the Orc chief of a clan Durotan that wants to meet King Llane to stop the fel magic. Meanwhile Khadgar learns that the gate was opened with the help of someone ...

Screenshot:

User image
User image
User image
User image


Dane techniczne:

General
Format : Matroska
Format version : Version 2
File size : 3.96 GiB
Duration : 2h 3mn
Overall bit rate : 4 600 Kbps
Movie name : Warcraft.3D.2016.PLSUBBED.HOU.BDRip.1080p.Sonda [AT-Team]
Encoded date : UTC 2016-09-17 12:16:48
Writing application : mkvmerge v5.7.0 ('The Whirlwind') built on Jul 8 2012 20:08:51
Writing library : libebml v1.2.3 + libmatroska v1.3.0

Video
ID : 1
Format : AVC
Format/Info : Advanced Video Codec
Format profile : High@L4.1
Format settings, CABAC : Yes
Format settings, ReFrames : 4 frames
Codec ID : V_MPEG4/ISO/AVC
Duration : 2h 3mn
Bit rate : 4 150 Kbps
Width : 1 920 pixels
Height : 1 080 pixels
Display aspect ratio : 16:9 (2.39:1)
Frame rate mode : Constant
Frame rate : 23.976 fps
Color space : YUV
Chroma subsampling : 4:2:0
Bit depth : 8 bits
Scan type : Progressive
Bits/(Pixel*Frame) : 0.083
Stream size : 3.49 GiB (88%)
Title : PLSUBBED Rip by Sonda
Writing library : x264 core 148 r2638 7599210
Encoding settings : cabac=1 / ref=4 / deblock=1:-1:-1 / rc=2pass
Default : Yes
Forced : No

Audio
ID : 2
Format : AC-3
Format/Info : Audio Coding 3
Mode extension : CM (complete main)
Format settings, Endianness : Big
Codec ID : A_AC3
Duration : 2h 3mn
Bit rate mode : Constant
Bit rate : 448 Kbps
Channel count : 6 channels
Channel positions : Front: L C R, Side: L R, LFE
Sampling rate : 48.0 KHz
Bit depth : 16 bits
Compression mode : Lossy
Stream size : 395 MiB (10%)
Title : AC3 5.1 ENG
Language : English
Default : Yes
Forced : No

Source:
A/V-Warcraft (2016) 1080p [2D/3D] BD-Remux - HDCLUB
PLSUBBED - Sonda
Thanks- Sonda





Ocena użytkowników Help
Działa(0) | Fake(0) | Nie działa(0) | Wymagane hasło(0) | Wirus(0)
Statystyki seed/leech Ostatnio aktualizowane: 2020-05-25 22:52:55 [Aktualizuj]
Napisano: 09.05.2021 09:38
 
Nikt jeszcze nie skomentował tego torrenta... Może Ty to zrobisz?
Oświadczenie: Pliki prezentowane w katalogu nie znajdują się na serwerach wortalu. Użytkownicy zezwolili na ich udostępnienie. Administrator serwisu BitNova.info oraz właściciel serwera nie może ponieść konsekwencji za to co użytkownicy udostępniają i publikują. Pamiętaj! Nie możesz używać tego serwisu do rozpowszechniania lub ściągania materiałów do których nie masz odpowiednich praw lub licencji. Użytkownicy są odpowiedzialni za przestrzeganie tych zasad.

(Disclaimer: None files presented in the directory aren't hosted on servers vortal. Users allow their release. The administrator of site BitNova.info and owner of the server can not be held responsible for what its users post, or any other actions of its users. You may not use this site to distribute or download any material when you do not have the legal rights to do so. It is your own responsibility to adhere to these terms.)
» Zgłaszanie nadużyć / Abuse