Jedyny taki katalog polskich torrentów w sieci. Najlepsze torrenty w jednym miejscu.

Korzystanie ze strony jest darmowe. W przeciwieństwie do konkurencji nie kasujemy kont użytkowników bez ich wyraźnej prośby.

Torrent: Faceci w Czerni 3-Mеn in Blасk 3 3D (2012)[BRRip 1080p x264 by alE13 AC3][Lektor i Napisy PL/Eng][Eng]

Faceci w Czerni 3-Mеn in Blасk 3 3D (2012)[BRRip 1080p x264 by alE13 AC3][Lektor i Napisy PL/Eng][Eng] torrent
Dodał: alE13
01.08.2017 07:32
Kategoria: Sci-Fi

Rozmiar: 8.10 GB
Seed'ów: 0
Leecher'ów: 1
Pobrań: 0

Kondycja:
 


» Komentarze [0]
» Obserwuj
» Zgłoś plik
User image

http://www.imdb.com/title/tt1409024/
http://www.filmweb.pl/film/Faceci+w+czerni+3-2012-506891

Plik zawiera Sample.

reżyseria: Barry Sonnenfeld
scenariusz: Etan Cohen,David Koepp,Jeff Nathanson,Michael Soccio
gatunek: Komedia,Sci-Fi
produkcja: USA
premiera: 14-05-2012
muzyka: Danny Elfman
zdjęcia: Bill Pope
czas: 1h 45min

opis:

Agent J travels in time to M.I.B.'s early days in 1969 to stop an alien from assassinating his friend
Agent K and changing history.

Agenci MIB zmierzą się z kosmitami w niezwykłym śledztwie pokonującym bariery nie tylko przestrzeni,
alE i czasu.

User image
User image
User image
User image

obsada:

Will Smith, Tommy Lee Jones, Josh Brolin

dane techniczne:

Mеn in Blасk 3 3D (2012)-alE13.mkv
Format : Matroska
Format version : Version 4 / Version 2
File size : 8.05 GiB
Duration : 1 h 45 min
Overall bit rate mode : Variable
Overall bit rate : 10.9 Mb/s
Movie name : Mеn in Blасk 3 3D (2012)-alE13
Encoded date : UTC 2017-08-01 04:49:46
Writing application : mkvmerge v8.1.0 ('Psychedelic Postcard') 64bit
Writing library : libebml v1.3.1 + libmatroska v1.4.2
Cover : Yes
Attachments : Cover.jpg

Video
ID : 1
Format : AVC
Format/Info : Advanced Video Codec
Format profile : High@L4
Format settings, CABAC : Yes
Format settings, RefFrames : 3 frames
Codec ID : V_MPEG4/ISO/AVC
Duration : 1 h 45 min
Bit rate mode : Variable
Bit rate : 9 609 kb/s
Maximum bit rate : 20.0 Mb/s
Width : 1 920 pixels
Height : 1 080 pixels
Display aspect ratio : 16:9
Frame rate mode : Constant
Frame rate : 23.976 (24000/1001) FPS
Standard : PAL
Color space : YUV
Chroma subsampling : 4:2:0
Bit depth : 8 bits
Scan type : Progressive
Bits/(Pixel*Frame) : 0.193
Stream size : 7.10 GiB (88%)
Title : Mеn in Blасk 3 3D (2012)-alE13
Default : Yes
Forced : No
Color range : Limited
Color primaries : BT.709
Transfer characteristics : BT.709
Matrix coefficients : BT.709

Audio #1
ID : 2
Format : AC-3
Format/Info : Audio Coding 3
Format settings, Endianness : Big
Codec ID : A_AC3
Duration : 1 h 45 min
Bit rate mode : Constant
Bit rate : 640 kb/s
Channel(s) : 6 channels
Channel positions : Front: L C R, Side: L R, LFE
Sampling rate : 48.0 kHz
Frame rate : 31.250 FPS (1536 SPF)
Bit depth : 16 bits
Compression mode : Lossy
Stream size : 484 MiB (6%)
Title : Mеn in Blасk 3 3D (2012)-alE13_AC3 / 5.1 ch / 640 kbps
Language : English
Service kind : Complete Main
Default : No
Forced : No

Audio #2
ID : 5
Format : AC-3
Format/Info : Audio Coding 3
Format settings, Endianness : Big
Codec ID : A_AC3
Duration : 1 h 45 min
Bit rate mode : Constant
Bit rate : 640 kb/s
Channel(s) : 6 channels
Channel positions : Front: L C R, Side: L R, LFE
Sampling rate : 48.0 kHz
Frame rate : 31.250 FPS (1536 SPF)
Bit depth : 16 bits
Compression mode : Lossy
Stream size : 484 MiB (6%)
Title : Mеn in Blасk 3 3D (2012)-alE13_AC3 / 5.1 ch / 640 kbps
Service kind : Complete Main
Default : Yes
Forced : No

Text #1
ID : 3
Format : UTF-8
Codec ID : S_TEXT/UTF8
Codec ID/Info : UTF-8 Plain Text
Duration : 1 h 37 min
Bit rate : 64 b/s
Count of elements : 1448
Stream size : 46.0 KiB (0%)
Title : Mеn in Blасk 3 3D (2012)-alE13
Language : English
Default : No
Forced : No

Text #2
ID : 4
Format : UTF-8
Codec ID : S_TEXT/UTF8
Codec ID/Info : UTF-8 Plain Text
Duration : 1 h 37 min
Bit rate : 60 b/s
Count of elements : 986
Stream size : 43.1 KiB (0%)
Title : Mеn in Blасk 3 3D (2012)-alE13
Language : Polish
Default : No
Forced : No

Menu
00:00:00.000 : :Chapter 01
00:06:09.577 : :Chapter 02
00:11:27.478 : :Chapter 03
00:16:58.809 : :Chapter 04
00:22:36.229 : :Chapter 05
00:31:24.632 : :Chapter 06
00:37:36.420 : :Chapter 07
00:42:43.018 : :Chapter 08
00:48:55.849 : :Chapter 09
00:53:58.234 : :Chapter 10
00:59:27.772 : :Chapter 11
01:05:52.782 : :Chapter 12
01:11:56.311 : :Chapter 13
01:19:50.619 : :Chapter 14
01:27:57.063 : :Chapter 15
01:35:30.683 : :Chapter 16
Ocena użytkowników Help
Działa(0) | Fake(0) | Nie działa(0) | Wymagane hasło(0) | Wirus(0)
Statystyki seed/leech Ostatnio aktualizowane: 2018-04-09 00:07:32 [Aktualizuj]


Napisano: 29.01.2023 20:23
 
Nikt jeszcze nie skomentował tego torrenta... Może Ty to zrobisz?
Oświadczenie: Pliki prezentowane w katalogu nie znajdują się na serwerach wortalu. Użytkownicy zezwolili na ich udostępnienie. Administrator serwisu BitNova.info oraz właściciel serwera nie może ponieść konsekwencji za to co użytkownicy udostępniają i publikują. Pamiętaj! Nie możesz używać tego serwisu do rozpowszechniania lub ściągania materiałów do których nie masz odpowiednich praw lub licencji. Użytkownicy są odpowiedzialni za przestrzeganie tych zasad.

(Disclaimer: None files presented in the directory aren't hosted on servers vortal. Users allow their release. The administrator of site BitNova.info and owner of the server can not be held responsible for what its users post, or any other actions of its users. You may not use this site to distribute or download any material when you do not have the legal rights to do so. It is your own responsibility to adhere to these terms.)
» Zgłaszanie nadużyć / Abuse