Jedyny taki katalog polskich torrentów w sieci. Najlepsze torrenty w jednym miejscu.

Korzystanie ze strony jest darmowe. W przeciwieństwie do konkurencji nie kasujemy kont użytkowników bez ich wyraźnej prośby.


Torrent: Kapitan Ron-Captain Ron (1992)[WEBRip 1080p x264 by alE13 AC3][Lektor i Napisy PL/Eng][Eng]

Kapitan Ron-Captain Ron (1992)[WEBRip 1080p x264 by alE13 AC3][Lektor i Napisy PL/Eng][Eng] torrent
Dodał: alE13
27.06.2017 10:01
Kategoria: Komedie

Rozmiar: 7.58 GB
Seed'ów: 0
Leecher'ów: 1
Pobrań: 0

Kondycja:
 


» Komentarze [0]
» Obserwuj
» Zgłoś plik
User image

http://www.imdb.com/title/tt0103924/
http://www.filmweb.pl/film/Kapitan+Ron-1992-4451

Plik zawiera Sample.

reżyseria: Thom E. Eberhardt
scenariusz: Thom E. Eberhardt,John Dwyer
gatunek: Komedia,Przygodowy
produkcja: USA
premiera: 18-0-1992
muzyka: Nicholas Pike
zdjęcia: Daryn Okada
czas: 1h 40min

opis:

A family in Chicago inherits the yacht formerly owned by Clark Gable. They decide to sail
it from the island of Ste. Pomme de Terre to Miami, and they sail with the assistance of
Captain Ron and their lives will never be the same again.

Rodzina z Chicago wynajmuje kapitana Rona, by pomógł im sprowadzić na Florydę odziedziczony jacht.

User image
User image
User image
User image

obsada:

Kurt Russell, Martin Short, Mary Kay Place

dane techniczne:

Captain Ron (1992)-alE13.mkv
Format : Matroska
Format version : Version 4 / Version 2
File size : 7.53 GiB
Duration : 1 h 40 min
Overall bit rate : 10.8 Mb/s
Movie name : Captain Ron (1992)-alE13
Encoded date : UTC 2017-06-27 05:07:55
Writing application : mkvmerge v8.1.0 ('Psychedelic Postcard') 64bit
Writing library : libebml v1.3.1 + libmatroska v1.4.2
Cover : Yes
Attachments : Cover.jpg

Video
ID : 1
Format : AVC
Format/Info : Advanced Video Codec
Format profile : High@L4.1
Format settings, CABAC : Yes
Format settings, ReFrames : 2 frames
Codec ID : V_MPEG4/ISO/AVC
Duration : 1 h 40 min
Bit rate : 10.1 Mb/s
Width : 1 920 pixels
Height : 1 080 pixels
Display aspect ratio : 16:9
Frame rate mode : Constant
Frame rate : 23.976 (24000/1001) FPS
Color space : YUV
Chroma subsampling : 4:2:0
Bit depth : 8 bits
Scan type : Progressive
Bits/(Pixel*Frame) : 0.204
Stream size : 7.09 GiB (94%)
Title : Captain Ron (1992)-alE13
Writing library : x264 core 142
Default : Yes
Forced : No
Color range : Limited
Color primaries : BT.709
Transfer characteristics : BT.709
Matrix coefficients : BT.709

Audio #1
ID : 2
Format : AC-3
Format/Info : Audio Coding 3
Mode extension : CM (complete main)
Format settings, Endianness : Big
Codec ID : A_AC3
Duration : 1 h 40 min
Bit rate mode : Constant
Bit rate : 384 kb/s
Channel(s) : 2 channels
Channel positions : Front: L R
Sampling rate : 48.0 kHz
Frame rate : 31.250 FPS (1536 spf)
Compression mode : Lossy
Stream size : 275 MiB (4%)
Title : Captain Ron (1992)-alE13_AC3
Language : English
Default : No
Forced : No

Audio #2
ID : 3
Format : AC-3
Format/Info : Audio Coding 3
Mode extension : CM (complete main)
Format settings, Endianness : Big
Codec ID : A_AC3
Duration : 1 h 40 min
Bit rate mode : Constant
Bit rate : 256 kb/s
Channel(s) : 2 channels
Channel positions : Front: L R
Sampling rate : 48.0 kHz
Frame rate : 31.250 FPS (1536 spf)
Compression mode : Lossy
Delay relative to video : 810 ms
Stream size : 183 MiB (2%)
Title : Captain Ron (1992)-alE13_AC3
Language : Polish
Default : Yes
Forced : No

Text #1
ID : 4
Format : UTF-8
Codec ID : S_TEXT/UTF8
Codec ID/Info : UTF-8 Plain Text
Duration : 1 h 34 min
Bit rate : 49 b/s
Count of elements : 871
Stream size : 34.7 KiB (0%)
Title : Captain Ron (1992)-alE13
Language : Polish
Default : No
Forced : No

Text #2
ID : 5
Format : UTF-8
Codec ID : S_TEXT/UTF8
Codec ID/Info : UTF-8 Plain Text
Duration : 1 h 34 min
Bit rate : 75 b/s
Count of elements : 1544
Stream size : 52.8 KiB (0%)
Title : Captain Ron (1992)-alE13
Language : English
Default : No
Forced : No

Menu
00:00:00.000 : en:Opening Titles/Someday
00:11:48.000 : en:A Classic
00:16:03.000 : en:Call Me Captain Ron
00:23:16.000 : en:The Adventure Begins
00:32:26.000 : en:Make The Game Interesting
00:38:47.000 : en:The Land Of Voodoo
00:47:15.000 : en:Pirates Of The Caribbean
00:56:53.000 : en:Worth Getting Lost
01:05:20.000 : en:Carnival
01:14:36.000 : en:Welcome To Cuba
01:25:34.000 : en:Nothing Can Stop Us Now
01:33:47.000 : en:Miami/End Credits
Ocena użytkowników Help
Działa(0) | Fake(0) | Nie działa(0) | Wymagane hasło(0) | Wirus(0)
Statystyki seed/leech Ostatnio aktualizowane: 2022-04-13 15:31:38 [Aktualizuj]
Napisano: 09.08.2022 04:13
 
Nikt jeszcze nie skomentował tego torrenta... Może Ty to zrobisz?
Oświadczenie: Pliki prezentowane w katalogu nie znajdują się na serwerach wortalu. Użytkownicy zezwolili na ich udostępnienie. Administrator serwisu BitNova.info oraz właściciel serwera nie może ponieść konsekwencji za to co użytkownicy udostępniają i publikują. Pamiętaj! Nie możesz używać tego serwisu do rozpowszechniania lub ściągania materiałów do których nie masz odpowiednich praw lub licencji. Użytkownicy są odpowiedzialni za przestrzeganie tych zasad.

(Disclaimer: None files presented in the directory aren't hosted on servers vortal. Users allow their release. The administrator of site BitNova.info and owner of the server can not be held responsible for what its users post, or any other actions of its users. You may not use this site to distribute or download any material when you do not have the legal rights to do so. It is your own responsibility to adhere to these terms.)
» Zgłaszanie nadużyć / Abuse