Jedyny taki katalog polskich torrentów w sieci. Najlepsze torrenty w jednym miejscu.

Korzystanie ze strony jest darmowe. W przeciwieństwie do konkurencji nie kasujemy kont użytkowników bez ich wyraźnej prośby.


Torrent: Kong: Wyspa Czaszki-Kong: Skull Island 3D (2017)[WEBRip 1080p x264 by alE13 AC3/DTS][Lektor i Napisy PL][Eng]

Kong: Wyspa Czaszki-Kong: Skull Island 3D (2017)[WEBRip 1080p x264 by alE13 AC3/DTS][Lektor i Napisy PL][Eng] torrent
Dodał: alE13
25.06.2017 13:14
Kategoria: Przygodowe

Rozmiar: 9.57 GB
Seed'ów: 0
Leecher'ów: 0
Pobrań: 0

Kondycja:
 


» Komentarze [0]
» Obserwuj
» Zgłoś plik
User image

http://www.filmweb.pl/film/Kong%3A+Wyspa+Czaszki-2017-719066
http://www.imdb.com/title/tt3731562/

Audio DTS w osobnym pliku.
Plik zawiera Sample.


reżyseria: Jordan Vogt-Roberts
scenariusz: Max Borenstein,Dan Gilroy,Derek Connolly
gatunek: Fantasy,Przygodowy
produkcja: USA
premiera: 28-02-2017
muzyka: Henry Jackman
zdjęcia: Larry Fong
czas: 1 h 58 min

opis:

A team of scientists explore an uncharted island in the Pacific, venturing into the domain of the mighty Kong,
and must fight to escape a primal Eden.

Grupa odkrywców trafia na wyspę zamieszkałą przez mitycznego Konga, ich misja badawcza zamienia się w walkę
o przetrwanie.

Film Vogta-Robertsa to blisko dwugodzinny rollercoaster atrakcji łączący w idealnych proporcjach wysokooktanową
akcję, ducha przygody oraz szczyptę makabry. Potworny zwierzyniec prezentuje się nad wyraz okazale, spece od
montażu i efektów specjalnych zasłużyli na nominację do Oscara, a wiele skomponowanych z malarskim zacięciem
kadrów zasługuje na oprawienie w ramkę. Król nie mógł wymarzyć sobie lepszego powrotu na ekrany.

User image
User image
User image
User image

obsada:

Tom Hiddleston, Samuel L. Jackson, Brie Larson

dane techniczne:

Kong-Skull Island 3D (2017)-alE13.mkv
Format : Matroska
Format version : Version 4 / Version 2
File size : 8.26 GiB
Duration : 1 h 58 min
Overall bit rate : 9 991 kb/s
Movie name : Kong: Skull Island (2017)-alE13_AC3
Encoded date : UTC 2017-06-25 06:10:46
Writing application : mkvmerge v8.1.0 ('Psychedelic Postcard') 64bit
Writing library : libebml v1.3.1 + libmatroska v1.4.2
Cover : Yes
Attachments : Cover.jpg

Video
ID : 1
Format : AVC
Format/Info : Advanced Video Codec
Format profile : High@L4.1
Format settings, CABAC : Yes
Format settings, ReFrames : 2 frames
Codec ID : V_MPEG4/ISO/AVC
Duration : 1 h 58 min
Bit rate : 9 148 kb/s
Width : 1 920 pixels
Height : 1 080 pixels
Display aspect ratio : 16:9
Frame rate mode : Constant
Frame rate : 23.976 (24000/1001) FPS
Color space : YUV
Chroma subsampling : 4:2:0
Bit depth : 8 bits
Scan type : Progressive
Bits/(Pixel*Frame) : 0.184
Stream size : 7.56 GiB (92%)
Title : Kong: Skull Island 3D (2017)-alE13
Writing library : x264 core 142
Default : Yes
Forced : No
Color range : Limited
Color primaries : BT.709
Transfer characteristics : BT.709
Matrix coefficients : BT.709

Audio #1
ID : 2
Format : AC-3
Format/Info : Audio Coding 3
Mode extension : CM (complete main)
Format settings, Endianness : Big
Codec ID : A_AC3
Duration : 1 h 58 min
Bit rate mode : Constant
Bit rate : 448 kb/s
Channel(s) : 6 channels
Channel positions : Front: L C R, Side: L R, LFE
Sampling rate : 48.0 kHz
Frame rate : 31.250 FPS (1536 spf)
Compression mode : Lossy
Stream size : 379 MiB (4%)
Title : Kong: Skull Island 3D (2017)-alE13_AC3
Language : English
Default : No
Forced : No

Audio #2
ID : 3
Format : AC-3
Format/Info : Audio Coding 3
Mode extension : CM (complete main)
Format settings, Endianness : Big
Codec ID : A_AC3
Duration : 1 h 58 min
Bit rate mode : Constant
Bit rate : 384 kb/s
Channel(s) : 6 channels
Channel positions : Front: L C R, Side: L R, LFE
Sampling rate : 48.0 kHz
Frame rate : 31.250 FPS (1536 spf)
Compression mode : Lossy
Delay relative to video : 650 ms
Stream size : 325 MiB (4%)
Title : Kong: Skull Island 3D (2017)-alE13_AC3
Language : Polish
Default : Yes
Forced : No

Text #1
ID : 4
Format : UTF-8
Codec ID : S_TEXT/UTF8
Codec ID/Info : UTF-8 Plain Text
Duration : 1 h 57 min
Bit rate : 36 b/s
Count of elements : 1244
Stream size : 31.3 KiB (0%)
Title : Kong: Skull Island 3D (2017)-alE13_srt
Language : Polish
Default : No
Forced : No

Text #2
ID : 5
Format : VobSub
Muxing mode : zlib
Codec ID : S_VOBSUB
Codec ID/Info : Picture based subtitle format used on DVDs
Duration : 1 h 57 min
Bit rate : 6 056 b/s
Count of elements : 1244
Stream size : 5.07 MiB (0%)
Title : Kong: Skull Island 3D(2017)-alE13_VobSub
Language : Polish
Default : Yes
Forced : No

Menu
00:00:00.000 : en:(01)00:00:00:000
00:08:54.743 : en:(02)00:08:54:743
00:19:51.773 : en:(03)00:19:51:773
00:30:01.133 : en:(04)00:30:01:133
00:40:00.106 : en:(05)00:40:00:106
00:50:13.260 : en:(06)00:50:13:260
01:00:49.729 : en:(07)01:00:49:729
01:10:29.600 : en:(08)01:10:29:600
01:18:05.890 : en:(09)01:18:05:890
01:30:12.657 : en:(10)01:30:12:657
01:39:09.026 : en:(11)01:39:09:026
01:47:05.836 : en:(12)01:47:05:836
Ocena użytkowników Help
Działa(0) | Fake(0) | Nie działa(0) | Wymagane hasło(0) | Wirus(0)
Statystyki seed/leech Ostatnio aktualizowane: 2020-05-28 13:28:58 [Aktualizuj]
Napisano: 23.01.2022 16:49
 
Nikt jeszcze nie skomentował tego torrenta... Może Ty to zrobisz?
Oświadczenie: Pliki prezentowane w katalogu nie znajdują się na serwerach wortalu. Użytkownicy zezwolili na ich udostępnienie. Administrator serwisu BitNova.info oraz właściciel serwera nie może ponieść konsekwencji za to co użytkownicy udostępniają i publikują. Pamiętaj! Nie możesz używać tego serwisu do rozpowszechniania lub ściągania materiałów do których nie masz odpowiednich praw lub licencji. Użytkownicy są odpowiedzialni za przestrzeganie tych zasad.

(Disclaimer: None files presented in the directory aren't hosted on servers vortal. Users allow their release. The administrator of site BitNova.info and owner of the server can not be held responsible for what its users post, or any other actions of its users. You may not use this site to distribute or download any material when you do not have the legal rights to do so. It is your own responsibility to adhere to these terms.)
» Zgłaszanie nadużyć / Abuse