Jedyny taki katalog polskich torrentów w sieci. Najlepsze torrenty w jednym miejscu.

Korzystanie ze strony jest darmowe. W przeciwieństwie do konkurencji nie kasujemy kont użytkowników bez ich wyraźnej prośby.

Torrent: Dzień Niepodległości: Odrodzenie 3D Independence Day: Resurgence *2016* [mini HD 1080p 3D Half Over Under Dual Audio AC3 BluRay x264 SONDA] [Dubbing i Napisy PL] [ENG]

Dzień Niepodległości: Odrodzenie 3D   Independence Day: Resurgence *2016* [mini HD 1080p 3D Half Over Under Dual Audio AC3 BluRay x264 SONDA] [Dubbing i Napisy PL] [ENG] torrent
Dodał: Ishimura
02.06.2017 10:39
Kategoria: Akcja

Rozmiar: 4.00 GB
Seed'ów: 0
Leecher'ów: 0
Pobrań: 0

Kondycja:
 


» Komentarze [0]
» Obserwuj
» Zgłoś plik
User image

Film w wersji 3D Half Over-Under.
Do odtworzenia filmu WYMAGANY odpowiedni sprzęt (TV 3D)
=========================================

Kopia mini-HD 1080p = 3,99 GB

gatunek: Akcja,Sci-Fi
produkcja: USA
premiera: 24 czerwca 2016 (Polska) 20 czerwca 2016 (świat)
reżyseria: Roland Emmerich
scenariusz: James A. Woods,Nicolas Wright,Dean Devlin,Roland Emmerich,James Vanderbilt

http://www.imdb.com/title/tt1628841/

Obsada:

Miłosz Konieczny ... Jake Morrison (polski dubbing)
Dariusz Kowalski ... David Levinson (polski dubbing)
Otar Saralidze ... Dylan Hiller (polski dubbing)
Grzegorz Wons ... Thomas J. Whitmore (polski dubbing)
Paulina Chapko ... Patricia Whitmore (polski dubbing)
Joanna Jeżewska ... Prezydent Lanford (polski dubbing)
Przemysław Bluszcz ... Generał Adams (polski dubbing)

Opis:

Kontynuacja jednego z największych przebojów w dziejach kina, spektakularna opowieść o inwazji przedstawicieli obcej cywilizacji na naszą planetę. Po najeździe obcych na Ziemię ludzie wykorzystali pozostawione przez nich zdobycze techniki do budowy supernowoczesnego systemu obronnego dla całej naszej planety. Nic jednak nie mogło przygotować nas na ponowny najazd przybyszy, którzy powracają, by ze zdwojoną siłą przypuścić atak na Ziemię. Gigantyczne statki obcych obracają w gruzy największe metropolie i los świata wydaje się przesądzony. Końcu świata zapobiec może tylko zdecydowana akcja wszystkich ludzi, którzy jednoczą się w zmasowanym kontrataku, by pokazać obcym, że Ziemia jest już zajęta.

Storyline:

Two decades after the freak alien invasion that nearly destroyed mankind a new threat emerges. This Alien mothership is more than twice the size as the last one and once again, the world's armies must band together to save the world. Do they have enough firepower or will this battle change and will aliens take over?

Screenshot:

User image
User image
User image
User image


Dane techniczne:

General
Format : Matroska
Format version : Version 2
File size : 4.00 GiB
Duration : 1h 59mn
Overall bit rate : 4 777 Kbps
Movie name : Independence.Day.Resurgence.3D.2016.PL.HOU.BDRip.1080p.Sonda
Encoded date : UTC 2016-11-04 15:06:52
Writing application : mkvmerge v5.7.0 ('The Whirlwind') built on Jul 8 2012 20:08:51
Writing library : libebml v1.2.3 + libmatroska v1.3.0

Video
ID : 1
Format : AVC
Format/Info : Advanced Video Codec
Format profile : High@L4.1
Format settings, CABAC : Yes
Format settings, ReFrames : 4 frames
Codec ID : V_MPEG4/ISO/AVC
Duration : 1h 59mn
Bit rate : 3 650 Kbps
Width : 1 920 pixels
Height : 1 080 pixels
Display aspect ratio : 16:9 (2.39:1)
Frame rate mode : Constant
Frame rate : 23.976 fps
Color space : YUV
Chroma subsampling : 4:2:0
Bit depth : 8 bits
Scan type : Progressive
Bits/(Pixel*Frame) : 0.073
Stream size : 3.01 GiB (75%)
Title : Rip by Sonda
Writing library : x264 core 148 r2638 7599210
Encoding settings : cabac=1 / ref=4 / deblock=1:-1:-1 / rc=2pass
Default : Yes
Forced : No

Audio #1
ID : 2
Format : AC-3
Format/Info : Audio Coding 3
Mode extension : CM (complete main)
Format settings, Endianness : Big
Codec ID : A_AC3
Duration : 1h 59mn
Bit rate mode : Constant
Bit rate : 448 Kbps
Channel count : 6 channels
Channel positions : Front: L C R, Side: L R, LFE
Sampling rate : 48.0 KHz
Bit depth : 16 bits
Compression mode : Lossy
Stream size : 384 MiB (9%)
Title : AC3 5.1 Dubbing PL
Language : Polish
Default : Yes
Forced : Yes

Audio #2
ID : 3
Format : AC-3
Format/Info : Audio Coding 3
Mode extension : CM (complete main)
Format settings, Endianness : Big
Codec ID : A_AC3
Duration : 1h 59mn
Bit rate mode : Constant
Bit rate : 640 Kbps
Channel count : 6 channels
Channel positions : Front: L C R, Side: L R, LFE
Sampling rate : 48.0 KHz
Bit depth : 16 bits
Compression mode : Lossy
Stream size : 548 MiB (13%)
Title : AC3 5.1 ENG
Language : English
Default : No
Forced : No

Text #1
ID : 4
Format : UTF-8
Codec ID : S_TEXT/UTF8
Codec ID/Info : UTF-8 Plain Text
Title : napisy PL 2D.srt
Language : Polish
Default : No
Forced : No

Text #2
ID : 5
Format : UTF-8
Codec ID : S_TEXT/UTF8
Codec ID/Info : UTF-8 Plain Text
Title : napisy ENG 2D.srt
Language : English
Default : No
Forced : No

Text #3
ID : 6
Format : PGS
Muxing mode : zlib
Codec ID : S_HDMV/PGS
Codec ID/Info : The same subtitle format used on BDs/HD-DVDs
Title : napisy PL 3D.sup
Language : Polish
Default : No
Forced : No

Text #4
ID : 7
Format : PGS
Muxing mode : zlib
Codec ID : S_HDMV/PGS
Codec ID/Info : The same subtitle format used on BDs/HD-DVDs
Title : napisy ENG 3D.sup
Language : English
Default : No
Forced : No

Source:
A/V- Independence Day: Resurgence (2016) Blu-ray 3D EUR 1080p AVC DTS 5.1-HDCLUB
Dubbing PL - Independence Day: Resurgence 1080p.CEE.Blu-ray.AVC.DTS-HD.MA.7.1-TreZzoR
Thanks - Sonda
Ocena użytkowników Help
Działa(0) | Fake(0) | Nie działa(0) | Wymagane hasło(0) | Wirus(0)
Statystyki seed/leech Ostatnio aktualizowane: 2022-12-03 19:50:39 [Aktualizuj]


Napisano: 01.02.2023 17:00
 
Nikt jeszcze nie skomentował tego torrenta... Może Ty to zrobisz?
Oświadczenie: Pliki prezentowane w katalogu nie znajdują się na serwerach wortalu. Użytkownicy zezwolili na ich udostępnienie. Administrator serwisu BitNova.info oraz właściciel serwera nie może ponieść konsekwencji za to co użytkownicy udostępniają i publikują. Pamiętaj! Nie możesz używać tego serwisu do rozpowszechniania lub ściągania materiałów do których nie masz odpowiednich praw lub licencji. Użytkownicy są odpowiedzialni za przestrzeganie tych zasad.

(Disclaimer: None files presented in the directory aren't hosted on servers vortal. Users allow their release. The administrator of site BitNova.info and owner of the server can not be held responsible for what its users post, or any other actions of its users. You may not use this site to distribute or download any material when you do not have the legal rights to do so. It is your own responsibility to adhere to these terms.)
» Zgłaszanie nadużyć / Abuse