Jedyny taki katalog polskich torrentów w sieci. Najlepsze torrenty w jednym miejscu.

Korzystanie ze strony jest darmowe. W przeciwieństwie do konkurencji nie kasujemy kont użytkowników bez ich wyraźnej prośby.


Torrent: Igrzyska śmierci: Kosogłos Część 2 3D The Hunger Games: Mockingjay Part 2 *2015* [mini HD 1080p 3D Half Over Under AC3 BluRay x264 SONDA] [Lektor PL] [AT TEAM]

Igrzyska śmierci: Kosogłos  Część 2 3D   The Hunger Games: Mockingjay Part 2 *2015* [mini HD 1080p 3D Half Over Under AC3 BluRay x264 SONDA] [Lektor PL] [AT TEAM] torrent
Dodał: Ishimura
06.05.2017 10:29
Kategoria: Akcja

Rozmiar: 3.97 GB
Seed'ów: 0
Leecher'ów: 0
Pobrań: 0

Kondycja:
 


» Komentarze [0]
» Obserwuj
» Zgłoś plik
https://i.imgur.com/BxOxBhC.jpg

Film w wersji 3D Over-Under.
Do odtworzenia filmu WYMAGANY odpowiedni sprzęt (TV 3D)
===========================================

Kopia mini-HD 1080p = 3,96 GB

gatunek: Akcja,Sci-Fi
produkcja: USA
premiera: 20 listopada 2015 (Polska) 4 listopada 2015 (świat)
reżyseria: Francis Lawrence
scenariusz: Danny Strong,Peter Craig

http://www.imdb.com/title/tt1951266/

Obsada:

Jennifer Lawrence ... Katniss Everdeen
Josh Hutcherson ... Peeta Mellark
Liam Hemsworth ... Gale Hawthorne
Woody Harrelson ... Haymitch Abernathy
Donald Sutherland ... Prezydent Snow
Philip Seymour Hoffman ... Plutarch Heavensbee
Julianne Moore ... Prezydent Alma Coin
Willow Shields ... Primrose Everdeen

Opis:

Katniss Everdeen i przywódcy Dystryktu 13 rozpoczynają wielką ofensywą przeciwko Kapitolowi. Walka toczy się już nie tylko o przetrwanie, ale o przyszłość całego narodu. Katniss wspierana przez Gale'a (Liam Hemsworth), Finnicka (Sam Claflin) oraz Peetę (Josh Hutcherson) planuje zamach na prezydenta Snowa (Donald Sutherland). Bezwzględni wrogowie i moralne wybory, przed którymi stanie Katniss, będą dla niej większym wyzwaniem niż cokolwiek, co wcześniej przeżyła na arenach Głodowych Igrzysk.

Storyline:

After young Katniss Everdeen agrees to be the symbol of rebellion, the Mockingjay, she tries to return Peeta to his normal state, tries to get to the Capitol, and tries to deal with the battles coming her way...but all for her main goal; assassinating President Snow and returning peace to the Districts of Panem. As her squad starts to get smaller and smaller, will she make it to the Capitol? Will she get revenge on Snow? Or will her target change? Will she be with her "Star-Crossed Lover", Peeta? Or her long time friend, Gale? Deaths, Bombs, Bows and Arrows, A Love Triangle, Hope. What will happen?

Screenshot:

https://i.imgur.com/foMGfhX.jpg
https://i.imgur.com/S75Wy5T.jpg
https://i.imgur.com/55rzB3s.jpg
https://i.imgur.com/fsuc9aT.jpg


Dane techniczne:

General
Format : Matroska
Format version : Version 2
File size : 3.97 GiB
Duration : 2h 16mn
Overall bit rate : 4 147 Kbps
Movie name : The.Hunger.Games.Mockingjay.Part.2.3D.2015.PL.HOU.1080p.BDRip.Sonda [AT-Team]
Encoded date : UTC 2016-04-01 10:19:14
Writing application : mkvmerge v5.7.0 ('The Whirlwind') built on Jul 8 2012 20:08:51
Writing library : libebml v1.2.3 + libmatroska v1.3.0

Video
ID : 1
Format : AVC
Format/Info : Advanced Video Codec
Format profile : High@L4.1
Format settings, CABAC : Yes
Format settings, ReFrames : 4 frames
Codec ID : V_MPEG4/ISO/AVC
Duration : 2h 16mn
Bit rate : 3 700 Kbps
Width : 1 920 pixels
Height : 1 080 pixels
Display aspect ratio : 16:9 (2.39:1)
Frame rate mode : Constant
Frame rate : 23.976 fps
Color space : YUV
Chroma subsampling : 4:2:0
Bit depth : 8 bits
Scan type : Progressive
Bits/(Pixel*Frame) : 0.074
Stream size : 3.46 GiB (87%)
Title : Rip by Sonda
Writing library : x264 core 148 r2638 7599210
Encoding settings : cabac=1 / ref=4 / deblock=1:-1:-1 / rc=2pass
Default : Yes
Forced : No

Audio
ID : 2
Format : AC-3
Format/Info : Audio Coding 3
Mode extension : CM (complete main)
Format settings, Endianness : Big
Codec ID : A_AC3
Duration : 2h 16mn
Bit rate mode : Constant
Bit rate : 448 Kbps
Channel count : 6 channels
Channel positions : Front: L C R, Side: L R, LFE
Sampling rate : 48.0 KHz
Bit depth : 16 bits
Compression mode : Lossy
Stream size : 439 MiB (11%)
Title : AC3 5.1 Lektor PL
Language : Polish
Default : Yes
Forced : No

Source:
V-The Hunger Games: Mockingjay - Part 2 (2015) 1080p [2D/3D] BD-Remux
Lektor PL - BD
Thanks - Sonda
Ocena użytkowników Help
Działa(0) | Fake(0) | Nie działa(0) | Wymagane hasło(0) | Wirus(0)
Statystyki seed/leech Ostatnio aktualizowane: 2020-11-20 20:02:21 [Aktualizuj]
Napisano: 27.11.2021 04:23
 
Nikt jeszcze nie skomentował tego torrenta... Może Ty to zrobisz?
Oświadczenie: Pliki prezentowane w katalogu nie znajdują się na serwerach wortalu. Użytkownicy zezwolili na ich udostępnienie. Administrator serwisu BitNova.info oraz właściciel serwera nie może ponieść konsekwencji za to co użytkownicy udostępniają i publikują. Pamiętaj! Nie możesz używać tego serwisu do rozpowszechniania lub ściągania materiałów do których nie masz odpowiednich praw lub licencji. Użytkownicy są odpowiedzialni za przestrzeganie tych zasad.

(Disclaimer: None files presented in the directory aren't hosted on servers vortal. Users allow their release. The administrator of site BitNova.info and owner of the server can not be held responsible for what its users post, or any other actions of its users. You may not use this site to distribute or download any material when you do not have the legal rights to do so. It is your own responsibility to adhere to these terms.)
» Zgłaszanie nadużyć / Abuse