Jedyny taki katalog polskich torrentów w sieci. Najlepsze torrenty w jednym miejscu.

Korzystanie ze strony jest darmowe. W przeciwieństwie do konkurencji nie kasujemy kont użytkowników bez ich wyraźnej prośby.


Torrent: Point Break na fali 3D Point Break *2015* [1080p 3D Half Over Under DTS HD MA 7 1 AC3 BluRay x264 SONDA] [Lektor i Napisy PL] [ENG] [AT TEAM]

Point Break   na fali 3D   Point Break *2015* [1080p 3D Half Over Under DTS HD MA 7 1 AC3 BluRay x264 SONDA] [Lektor i Napisy PL] [ENG] [AT TEAM] torrent
Dodał: Ishimura
06.05.2017 10:27
Kategoria: Akcja

Rozmiar: 13.08 GB
Seed'ów: 0
Leecher'ów: 0
Pobrań: 0

Kondycja:
 


» Komentarze [0]
» Obserwuj
» Zgłoś plik
https://i.imgur.com/XGCXYqu.jpg

Film w wersji 3D Over-Under.
Do odtworzenia filmu WYMAGANY odpowiedni sprzęt (TV 3D)
==========================================

gatunek: Akcja
produkcja: Chiny,Niemcy,USA
premiera: 8 stycznia 2016 (Polska) 1 grudnia 2015 (świat)
reżyseria: Ericson Core
scenariusz: Kurt Wimmer

http://www.imdb.com/title/tt2058673/

Obsada:

Edgar Ramirez ... Bodhi
Luke Bracey ... Utah
Ray Winstone ... Pappas
Teresa Palmer ... Samsara
Matias Varela ... Grommet
Clemens Schick ... Roach
Tobias Santelmann ... Chowder
Max Thieriot ... Jeff

Opis:

Zrealizowany przy użyciu najnowocześniejszej technologii, tętniący adrenaliną thriller ukazujący świat sportów ekstremalnych w ich najbardziej ryzykownych odmianach. Johnny Utah, były gwiazdor sportów ekstremalnych, a obecnie agent FBI prowadzi śledztwo w sprawie serii zuchwałych napadów, które łączy jeden wspólny mianownik - dokonać ich mogli tylko ludzie, którzy na co dzień igrają ze śmiercią. Aby rozwiązać zagadkę Johnny będzie musiał dołączyć do grupy sportowców, którzy za nic mają granice ludzkich możliwości. A to oznacza wzięcie udziału w Wyprawie Ośmiu Wyzwań, która jest Świętym Graalem w świecie sportów ekstremalnych.

Storyline:

A young FBI agent infiltrates an extraordinary team of extreme sports athletes he suspects of masterminding a string of unprecedented, sophisticated corporate heists. Deep undercover, and with his life in danger, he strives to prove these athletes are the architects of the mind-boggling crimes that are devastating the world's financial markets.

Screenshot:

https://i.imgur.com/HkcKqgV.jpg
https://i.imgur.com/kQXjcHU.jpg
https://i.imgur.com/eEyFkyv.jpg
https://i.imgur.com/X0eObh1.jpg


Dane techniczne:

General
Format : Matroska
Format version : Version 2
File size : 13.1 GiB
Duration : 1h 53mn
Overall bit rate mode : Variable
Overall bit rate : 16.4 Mbps
Movie name : Point.Break.3D.2015.PL.HOU.BDRip.1080p.Sonda [AT-Team]
Encoded date : UTC 2016-04-23 17:04:16
Writing application : mkvmerge v5.7.0 ('The Whirlwind') built on Jul 8 2012 20:08:51
Writing library : libebml v1.2.3 + libmatroska v1.3.0

Video
ID : 1
Format : AVC
Format/Info : Advanced Video Codec
Format profile : High@L4.1
Format settings, CABAC : Yes
Format settings, ReFrames : 4 frames
Codec ID : V_MPEG4/ISO/AVC
Duration : 1h 53mn
Nominal bit rate : 12.5 Mbps
Width : 1 920 pixels
Height : 1 080 pixels
Display aspect ratio : 16:9 (2.39:1)
Frame rate mode : Constant
Frame rate : 23.976 fps
Color space : YUV
Chroma subsampling : 4:2:0
Bit depth : 8 bits
Scan type : Progressive
Bits/(Pixel*Frame) : 0.251
Title : Rip by Sonda
Writing library : x264
Default : Yes
Forced : No

Audio #1
ID : 2
Format : AC-3
Format/Info : Audio Coding 3
Mode extension : CM (complete main)
Format settings, Endianness : Big
Codec ID : A_AC3
Duration : 1h 53mn
Bit rate mode : Constant
Bit rate : 448 Kbps
Channel count : 6 channels
Channel positions : Front: L C R, Side: L R, LFE
Sampling rate : 48.0 KHz
Bit depth : 16 bits
Compression mode : Lossy
Stream size : 365 MiB (3%)
Title : AC3 5.1 Lektor PL (DVD)
Language : Polish
Default : Yes
Forced : Yes

Audio #2
ID : 3
Format : AC-3
Format/Info : Audio Coding 3
Mode extension : CM (complete main)
Format settings, Endianness : Big
Codec ID : A_AC3
Duration : 1h 53mn
Bit rate mode : Constant
Bit rate : 640 Kbps
Channel count : 6 channels
Channel positions : Front: L C R, Side: L R, LFE
Sampling rate : 48.0 KHz
Bit depth : 16 bits
Compression mode : Lossy
Stream size : 521 MiB (4%)
Title : AC3 5.1
Language : English
Default : No
Forced : No

Audio #3
ID : 4
Format : DTS
Format/Info : Digital Theater Systems
Format profile : MA / Core
Mode : 16
Format settings, Endianness : Big
Codec ID : A_DTS
Duration : 1h 53mn
Bit rate mode : Variable
Bit rate : 2923 / 1 509 Kbps
Channel count : 8 channels / 6 channels
Channel positions : Front: L C R, Side: L R, Back: L R, LFE / Front: L C R, Side: L R, LFE
Sampling rate : 48.0 KHz
Bit depth : 16 bits
Compression mode : Lossless / Lossy
Title : DTS-HD MA 7.1
Language : English
Default : No
Forced : No

Text #1
ID : 5
Format : UTF-8
Codec ID : S_TEXT/UTF8
Codec ID/Info : UTF-8 Plain Text
Title : Napisy PL 2D
Language : Polish
Default : No
Forced : No

Text #2
ID : 6
Format : UTF-8
Codec ID : S_TEXT/UTF8
Codec ID/Info : UTF-8 Plain Text
Title : Napisy ENG 2D
Language : English
Default : No
Forced : No

Text #3
ID : 7
Format : PGS
Muxing mode : zlib
Codec ID : S_HDMV/PGS
Codec ID/Info : The same subtitle format used on BDs/HD-DVDs
Title : Napisy PL 3D
Language : Polish
Default : No
Forced : No

Text #4
ID : 8
Format : PGS
Muxing mode : zlib
Codec ID : S_HDMV/PGS
Codec ID/Info : The same subtitle format used on BDs/HD-DVDs
Title : Napisy ENG 3D
Language : English
Default : No
Forced : No

Source:
A/V-Point.Break.2015.1080p.3D.BluRay.AVC.DTS-HD.MA.7.1-RARBG
Lektor PL - DVD
Thanks - Sonda
Ocena użytkowników Help
Działa(0) | Fake(0) | Nie działa(0) | Wymagane hasło(0) | Wirus(0)
Statystyki seed/leech Ostatnio aktualizowane: 2020-05-05 17:00:12 [Aktualizuj]
Napisano: 27.11.2021 03:35
 
Nikt jeszcze nie skomentował tego torrenta... Może Ty to zrobisz?
Oświadczenie: Pliki prezentowane w katalogu nie znajdują się na serwerach wortalu. Użytkownicy zezwolili na ich udostępnienie. Administrator serwisu BitNova.info oraz właściciel serwera nie może ponieść konsekwencji za to co użytkownicy udostępniają i publikują. Pamiętaj! Nie możesz używać tego serwisu do rozpowszechniania lub ściągania materiałów do których nie masz odpowiednich praw lub licencji. Użytkownicy są odpowiedzialni za przestrzeganie tych zasad.

(Disclaimer: None files presented in the directory aren't hosted on servers vortal. Users allow their release. The administrator of site BitNova.info and owner of the server can not be held responsible for what its users post, or any other actions of its users. You may not use this site to distribute or download any material when you do not have the legal rights to do so. It is your own responsibility to adhere to these terms.)
» Zgłaszanie nadużyć / Abuse