Jedyny taki katalog polskich torrentów w sieci. Najlepsze torrenty w jednym miejscu.

Korzystanie ze strony jest darmowe. W przeciwieństwie do konkurencji nie kasujemy kont użytkowników bez ich wyraźnej prośby.


Torrent: Odlotowa przygoda 3D Atrapa la bandera / Capture the Flag *2015* [1080p 3D Half Over Under DTS HD MA 7 1 AC3 BluRay x264 SONDA] [Dubbing i Napisy PL] [ENG] [AT TEAM]

Odlotowa przygoda 3D   Atrapa la bandera / Capture the Flag *2015* [1080p 3D Half Over Under DTS HD MA 7 1 AC3 BluRay x264 SONDA] [Dubbing i Napisy PL] [ENG] [AT TEAM] torrent
Dodał: Ishimura
06.05.2017 10:23
Kategoria: Animowane

Rozmiar: 11.46 GB
Seed'ów: 0
Leecher'ów: 0
Pobrań: 0

Kondycja:
 


» Komentarze [0]
» Obserwuj
» Zgłoś plik
https://i.imgur.com/CyzZqUC.jpg

Film w wersji 3D Over-Under.
Do odtworzenia filmu WYMAGANY odpowiedni sprzęt (TV 3D).
=============================================

gatunek: Animacja,Przygodowy
produkcja: Hiszpania
premiera: 29 stycznia 2016 (Polska) 28 sierpnia 2015 (świat)
reżyseria: Enrique Gato
scenariusz: Patxi Amézcua,Jordi Gasull,Javier López Barreira,Neil Landau

http://www.imdb.com/title/tt3896100/

Obsada:

Marek Moryc ... Mike (polski dubbing)
Hubert Szczurek ... Marty (polski dubbing)
Julia Siechowicz ... Amy (polski dubbing)
Miłogost Reczek ... Frank (polski dubbing)
Tomasz Steciuk ... Carson (polski dubbing)
Waldemar Barwiński ... Scott (polski dubbing)
Agnieszka Kunikowska ... Samantha (polski dubbing)

Opis:

Pierwsza misja na Księżyc przeszła do historii i stała się jednym z najważniejszych symboli XX wieku, możliwości człowieka i triumfu nauki. Teraz multimilioner, Richard Carson, ogłasza w telewizji, że księżycowa misja Neila Armstronga była jedynie... hollywoodzkim trickiem, chce również zmienić bieg historii i stać się pierwszym człowiekiem, którego stopa dotknie Księżyca. Powstrzymać go może jedynie dwunastoletni surfer Mike. Wspólnie z przyjaciółmi, przyszłą dziennikarką Amy i typowym geekiem - Martym, oraz dziadkiem - byłym astronautą - wyruszają na Księżyc, by uratować świat przed zamiarami Carsona.

Storyline:

Mike Goldwing, a plucky, determined 12-year old boy, is the son and grandson of NASA astronauts. His grandfather Frank, a once revered, but now forgotten retired astronaut, lives his days isolated from his family after missing out on his big chance to fly to the moon with Neil Armstrong and Buzz Aldrin as a part of the Apollo XI mission. When an eccentric billionaire sets an evil plan to fly to the moon, steal the moon's vast mineral resources, and destroy the American flag planted by the Apollo XI team, Mike embarks on a magnificent adventure as a stowaway on the space shuttle. Accompanied by his grandfather, best friends Amy and Marty, and a clever chameleon, Mike blasts off to the moon to capture the flag and reunite his family.

Screenshot:

https://i.imgur.com/8oiNIOB.jpg
https://i.imgur.com/8dYu6IP.jpg
https://i.imgur.com/PYqRSmD.jpg
https://i.imgur.com/Yq7k3KF.jpg


Dane techniczne:

General
Format : Matroska
Format version : Version 2
File size : 11.5 GiB
Duration : 1h 34mn
Overall bit rate mode : Variable
Overall bit rate : 17.3 Mbps
Movie name : Capture.the.Flag.3D.2015.PL.HOU.BDRip.1080p.Sonda [AT-Team]
Encoded date : UTC 2016-05-14 09:13:19
Writing application : mkvmerge v5.7.0 ('The Whirlwind') built on Jul 8 2012 20:08:51
Writing library : libebml v1.2.3 + libmatroska v1.3.0

Video
ID : 1
Format : AVC
Format/Info : Advanced Video Codec
Format profile : High@L4.1
Format settings, CABAC : Yes
Format settings, ReFrames : 4 frames
Codec ID : V_MPEG4/ISO/AVC
Duration : 1h 34mn
Nominal bit rate : 12.5 Mbps
Width : 1 920 pixels
Height : 1 080 pixels
Display aspect ratio : 16:9 (2.39:1)
Frame rate mode : Constant
Frame rate : 23.976 fps
Color space : YUV
Chroma subsampling : 4:2:0
Bit depth : 8 bits
Scan type : Progressive
Bits/(Pixel*Frame) : 0.251
Title : Rip by Sonda
Writing library : x264
Encoding settings : cabac=1 / ref=4 / deblock=1:-1:-1 / rc=2pass
Default : Yes
Forced : No
Color primaries : BT.709
Transfer characteristics : BT.709
Matrix coefficients : BT.709

Audio #1
ID : 2
Format : AC-3
Format/Info : Audio Coding 3
Mode extension : CM (complete main)
Format settings, Endianness : Big
Codec ID : A_AC3
Duration : 1h 34mn
Bit rate mode : Constant
Bit rate : 384 Kbps
Channel count : 6 channels
Channel positions : Front: L C R, Side: L R, LFE
Sampling rate : 48.0 KHz
Bit depth : 16 bits
Compression mode : Lossy
Stream size : 260 MiB (2%)
Title : AC3 5.1 Dubbing PL
Language : Polish
Default : Yes
Forced : Yes

Audio #2
ID : 3
Format : AC-3
Format/Info : Audio Coding 3
Mode extension : CM (complete main)
Format settings, Endianness : Big
Codec ID : A_AC3
Duration : 1h 34mn
Bit rate mode : Constant
Bit rate : 640 Kbps
Channel count : 6 channels
Channel positions : Front: L C R, Side: L R, LFE
Sampling rate : 48.0 KHz
Bit depth : 16 bits
Compression mode : Lossy
Stream size : 433 MiB (4%)
Title : AC3 5.1
Language : English
Default : No
Forced : No

Audio #3
ID : 4
Format : DTS
Format/Info : Digital Theater Systems
Format profile : MA / Core
Mode : 16
Format settings, Endianness : Big
Codec ID : A_DTS
Duration : 1h 34mn
Bit rate mode : Variable
Bit rate : 4000 / 1 509 Kbps
Channel count : 8 channels / 6 channels
Channel positions : Front: L C R, Side: L R, Back: L R, LFE / Front: L C R, Side: L R, LFE
Sampling rate : 48.0 KHz
Bit depth : 24 bits
Compression mode : Lossless / Lossy
Delay relative to video : 6ms
Title : DTS-HD MA 7.1
Language : English
Default : No
Forced : No

Text #1
ID : 5
Format : UTF-8
Codec ID : S_TEXT/UTF8
Codec ID/Info : UTF-8 Plain Text
Title : napisy PL 2D
Language : Polish
Default : No
Forced : No

Text #2
ID : 6
Format : PGS
Muxing mode : zlib
Codec ID : S_HDMV/PGS
Codec ID/Info : The same subtitle format used on BDs/HD-DVDs
Title : napisy PL 3D
Language : Polish
Default : No
Forced : No

Text #3
ID : 7
Format : UTF-8
Codec ID : S_TEXT/UTF8
Codec ID/Info : UTF-8 Plain Text
Title : napisy ENG 2D
Language : English
Default : No
Forced : No

Text #4
ID : 8
Format : PGS
Muxing mode : zlib
Codec ID : S_HDMV/PGS
Codec ID/Info : The same subtitle format used on BDs/HD-DVDs
Title : napisy ENG 3D
Language : English
Default : No
Forced : No

Source:
A/V-BD3D
DTS-HD MA 7.1 - Capture.the.Flag.2015.1080p.BluRay.REMUX.AVC.DTS-HD.MA.TrueHD.7.1.Atmos
Dubbing PL - iTunes
Thanks - Sonda





Ocena użytkowników Help
Działa(0) | Fake(0) | Nie działa(0) | Wymagane hasło(0) | Wirus(0)
Statystyki seed/leech Ostatnio aktualizowane: 2018-06-26 05:30:42 [Aktualizuj]
Napisano: 01.12.2021 14:29
 
Nikt jeszcze nie skomentował tego torrenta... Może Ty to zrobisz?
Oświadczenie: Pliki prezentowane w katalogu nie znajdują się na serwerach wortalu. Użytkownicy zezwolili na ich udostępnienie. Administrator serwisu BitNova.info oraz właściciel serwera nie może ponieść konsekwencji za to co użytkownicy udostępniają i publikują. Pamiętaj! Nie możesz używać tego serwisu do rozpowszechniania lub ściągania materiałów do których nie masz odpowiednich praw lub licencji. Użytkownicy są odpowiedzialni za przestrzeganie tych zasad.

(Disclaimer: None files presented in the directory aren't hosted on servers vortal. Users allow their release. The administrator of site BitNova.info and owner of the server can not be held responsible for what its users post, or any other actions of its users. You may not use this site to distribute or download any material when you do not have the legal rights to do so. It is your own responsibility to adhere to these terms.)
» Zgłaszanie nadużyć / Abuse