Jedyny taki katalog polskich torrentów w sieci. Najlepsze torrenty w jednym miejscu.

Korzystanie ze strony jest darmowe. W przeciwieństwie do konkurencji nie kasujemy kont użytkowników bez ich wyraźnej prośby.


Torrent: Kung Fu Panda 3 3D *2016* [mini HD 1080p 3D Half Over Under DualAudio AC3 BluRay x264 SONDA] [Dubbing i Napisy PL] [ENG] [AT TEAM]

Kung Fu Panda 3 3D *2016* [mini HD 1080p 3D Half Over Under DualAudio AC3 BluRay x264 SONDA] [Dubbing i Napisy PL] [ENG] [AT TEAM] torrent
Dodał: Ishimura
06.05.2017 10:15
Kategoria: Animowane

Rozmiar: 3.76 GB
Seed'ów: 0
Leecher'ów: 0
Pobrań: 0

Kondycja:
 


» Komentarze [0]
» Obserwuj
» Zgłoś plik
User image

Film w wersji 3D Over-Under.
Do odtworzenia filmu WYMAGANY odpowiedni sprzęt (TV 3D)
=========================================

Kopia mini-HD 1080p = 3,75 GB

gatunek: Animacja,Familijny,Komedia,Przygodowy
produkcja: Chiny,USA
premiera: 1 kwietnia 2016 (Polska) 16 stycznia 2016 (świat)
reżyseria: Jennifer Yuh,Alessandro Carloni
scenariusz: Jonathan Aibel,Glenn Berger

http://www.imdb.com/title/tt2267968/

Obsada:

Marcin Hycnar ... Po (polski dubbing)
Szymon Kuśmider ... Li Shen (polski dubbing)
Jan Peszek ... Mistrz Shifu (polski dubbing)
Brygida Turowska ... Tygrysica (polski dubbing)
Andrzej Blumenfeld ... Kai (polski dubbing)
Jarosław Boberek ... Małpa (polski dubbing)
Krzysztof Banaszyk ... Modliszka (polski dubbing)
Tomasz Bednarek ... Żuraw (polski dubbing)
Izabella Bukowska ... Żmija (polski dubbing)

Opis:

Po spotyka swego dawno zaginionego ojca i obaj wyruszają do sekretnej krainy pand, gdzie poznają nowych, przezabawnych bohaterów. Gdy nadprzyrodzony złoczyńca Kai zaczyna pustoszyć całe Chiny, pokonując wszystkich mistrzów kung fu, Po musi dokonać niemożliwego - wytrenować całą wioskę swych rozbrykanych, niezdarnych współbraci, by utworzyli drużynę niepokonanych Kung Fu Pand!

Storyline:

When Po's long-lost panda father suddenly reappears, the reunited duo travels to a secret panda paradise to meet scores of hilarious new panda characters. But when the supernatural villain Kai begins to sweep across China defeating all the kung fu masters, Po must do the impossible-learn to train a village full of his fun-loving, clumsy brethren to become the ultimate band of Kung Fu Pandas.

Screenshot:

User image
User image
User image
User image


Dane techniczne:

General
Format : Matroska
Format version : Version 2
File size : 3.76 GiB
Duration : 1h 34mn
Overall bit rate : 5 665 Kbps
Movie name : Kung.Fu.Panda.3.3D.2016.PL.HOU.BDRip.1080p.Sonda [AT-Team]
Encoded date : UTC 2016-08-22 15:45:18
Writing application : mkvmerge v5.7.0 ('The Whirlwind') built on Jul 8 2012 20:08:51
Writing library : libebml v1.2.3 + libmatroska v1.3.0

Video
ID : 1
Format : AVC
Format/Info : Advanced Video Codec
Format profile : High@L4.1
Format settings, CABAC : Yes
Format settings, ReFrames : 4 frames
Codec ID : V_MPEG4/ISO/AVC
Duration : 1h 34mn
Bit rate : 4 550 Kbps
Width : 1 920 pixels
Height : 1 080 pixels
Display aspect ratio : 16:9 (2.39:1)
Frame rate mode : Constant
Frame rate : 23.976 fps
Color space : YUV
Chroma subsampling : 4:2:0
Bit depth : 8 bits
Scan type : Progressive
Bits/(Pixel*Frame) : 0.092
Stream size : 2.96 GiB (79%)
Title : Rip by Sonda
Writing library : x264 core 148 r2638 7599210
Encoding settings : cabac=1 / ref=4 / deblock=1:-1:-1 / rc=2pass
Default : Yes
Forced : No

Audio #1
ID : 2
Format : AC-3
Format/Info : Audio Coding 3
Mode extension : CM (complete main)
Format settings, Endianness : Big
Codec ID : A_AC3
Duration : 1h 34mn
Bit rate mode : Constant
Bit rate : 448 Kbps
Channel count : 6 channels
Channel positions : Front: L C R, Side: L R, LFE
Sampling rate : 48.0 KHz
Bit depth : 16 bits
Compression mode : Lossy
Stream size : 304 MiB (8%)
Title : AC3 5.1 Dubbing PL
Language : Polish
Default : Yes
Forced : Yes

Audio #2
ID : 3
Format : AC-3
Format/Info : Audio Coding 3
Mode extension : CM (complete main)
Format settings, Endianness : Big
Codec ID : A_AC3
Duration : 1h 34mn
Bit rate mode : Constant
Bit rate : 640 Kbps
Channel count : 6 channels
Channel positions : Front: L C R, Side: L R, LFE
Sampling rate : 48.0 KHz
Bit depth : 16 bits
Compression mode : Lossy
Stream size : 434 MiB (11%)
Title : AC3 5.1 ENG
Language : English
Default : No
Forced : No

Text #1
ID : 4
Format : UTF-8
Codec ID : S_TEXT/UTF8
Codec ID/Info : UTF-8 Plain Text
Title : napisy PL 2D
Language : Polish
Default : No
Forced : No

Text #2
ID : 5
Format : UTF-8
Codec ID : S_TEXT/UTF8
Codec ID/Info : UTF-8 Plain Text
Title : napisy ENG 2D
Language : English
Default : No
Forced : No

Text #3
ID : 6
Format : PGS
Muxing mode : zlib
Codec ID : S_HDMV/PGS
Codec ID/Info : The same subtitle format used on BDs/HD-DVDs
Title : napisy PL 3D
Language : Polish
Default : No
Forced : No

Text #4
ID : 7
Format : PGS
Muxing mode : zlib
Codec ID : S_HDMV/PGS
Codec ID/Info : The same subtitle format used on BDs/HD-DVDs
Title : napisy ENG 3D
Language : English
Default : No
Forced : No

Source:
A/V-Kung Fu Panda 3 (2016) 1080p.CEE.3D.BluRay.AVC.DTS-HD.MA.7.1-TreZzoR
Thanks - Sonda
Ocena użytkowników Help
Działa(0) | Fake(0) | Nie działa(0) | Wymagane hasło(0) | Wirus(0)
Statystyki seed/leech Ostatnio aktualizowane: 2020-05-10 21:05:27 [Aktualizuj]
Napisano: 01.12.2021 14:00
 
Nikt jeszcze nie skomentował tego torrenta... Może Ty to zrobisz?
Oświadczenie: Pliki prezentowane w katalogu nie znajdują się na serwerach wortalu. Użytkownicy zezwolili na ich udostępnienie. Administrator serwisu BitNova.info oraz właściciel serwera nie może ponieść konsekwencji za to co użytkownicy udostępniają i publikują. Pamiętaj! Nie możesz używać tego serwisu do rozpowszechniania lub ściągania materiałów do których nie masz odpowiednich praw lub licencji. Użytkownicy są odpowiedzialni za przestrzeganie tych zasad.

(Disclaimer: None files presented in the directory aren't hosted on servers vortal. Users allow their release. The administrator of site BitNova.info and owner of the server can not be held responsible for what its users post, or any other actions of its users. You may not use this site to distribute or download any material when you do not have the legal rights to do so. It is your own responsibility to adhere to these terms.)
» Zgłaszanie nadużyć / Abuse