Jedyny taki katalog polskich torrentów w sieci. Najlepsze torrenty w jednym miejscu.

Korzystanie ze strony jest darmowe. W przeciwieństwie do konkurencji nie kasujemy kont użytkowników bez ich wyraźnej prośby.


Torrent: Fantastyczne zwierzęta i jak je znaleźć 3D Fantastic Beasts and Where to Find Them *2016* [mini HD 1080p 3D Half Over Under DualAudio AC3 BluRay x264 SONDA] [Dubbing i Napisy PL] [ENG]

Fantastyczne zwierzęta i jak je znaleźć 3D   Fantastic Beasts and Where to Find Them *2016* [mini HD 1080p 3D Half Over Under DualAudio AC3 BluRay x264 SONDA] [Dubbing i Napisy PL] [ENG] torrent
Dodał: Ishimura
06.05.2017 10:11
Kategoria: Fantasy

Rozmiar: 3.99 GB
Seed'ów: 0
Leecher'ów: 1
Pobrań: 3

Kondycja:
 


» Komentarze [0]
» Obserwuj
» Zgłoś plik
User image

Film w wersji 3D Half Over-Under.
Do odtworzenia filmu WYMAGANY odpowiedni sprzęt (TV 3D)
=========================================

Kopia mini-HD 1080p = 3,99 GB

gatunek: Familijny,Fantasy,Przygodowy
produkcja: USA,Wielka Brytania
premiera: 18 listopada 2016 (Polska) 8 listopada 2016 (świat)
reżyseria: David Yates
scenariusz: J.K. Rowling

http://www.imdb.com/title/tt3183660/

Obsada:

Maciej Zakościelny ... Newt Scamander (polski dubbing)
Lidia Sadowa ... Tina Goldstein (polski dubbing)
Marieta Żukowska ... Queenie Goldstein (polski dubbing)
Anna Dereszowska ... Seraphina Picquery (polski dubbing)
Arkadiusz Jakubik ... Jacob Kowalski (polski dubbing)
Marcin Dorociński ... Percival Graves (polski dubbing)
Katarzyna Kwiatkowska ... Mary Lou Barebone (polski dubbing)
Józef Pawłowski ... Credence Barebone (polski dubbing)

Opis:

Akcja filmu "Fantastyczne zwierzęta i jak je znaleźć" rozpoczyna się w 1926 roku. Newt Scamander wraca z wielkiej wyprawy, której celem było odnalezienie i opisanie szeregu fantastycznych zwierząt. Jego krótki pobyt w Nowym Jorku mógłby przejść niezauważony, gdyby nie pewien nie-czar (tj. amerykański mugol) o imieniu Jakub, źle skierowany magiczny przypadek oraz ucieczka kilku fantastycznych zwierząt Newta. Wszystko to może spowodować nie lada kłopoty, zarówno dla świata magicznego, jak i nie-czarów.

Storyline:

Holding a mysterious leather suitcase in his hand, Newt Scamander, a young activist wizard from England, visits New York while he is on his way to Arizona. Inside his expanding suitcase hides a wide array of diverse, magical creatures that exist among us, ranging from tiny, twig-like ones, to majestic and humongous ones. It is the middle of the 20s and times are troubled since the already fragile equilibrium of secrecy between the unseen world of wizards and the ordinary or "No-Maj" people that the MACUSA Congress struggles to maintain, is at risk of being unsettled. In the meantime, the voices against wizardry keep growing with daily protests led by Mary Lou Barebone and fuelled by the increasing disasters ascribed to a dark wizard, Gellert Grindelwald. At the same time, by a twist of fate, Newt's precious suitcase will be switched with the identical one of an aspiring No-Maj baker, Jacob Kowalski, while demoted Auror, Tina Goldstein, arrests Newt for being an unregistered wizard.

Screenshot:

User image
User image
User image
User image


Dane techniczne:

General
Format : Matroska
Format version : Version 2
File size : 3.99 GiB
Duration : 2h 12mn
Overall bit rate : 4 304 Kbps
Movie name : Fantastic.Beasts.and.Where.to.Find.Them.3D.2016.PL.HOU.1080p.BDRip.Sonda
Encoded date : UTC 2017-04-04 13:22:38
Writing application : mkvmerge v5.7.0 ('The Whirlwind') built on Jul 8 2012 20:08:51
Writing library : libebml v1.2.3 + libmatroska v1.3.0

Video
ID : 1
Format : AVC
Format/Info : Advanced Video Codec
Format profile : High@L4.1
Format settings, CABAC : Yes
Format settings, ReFrames : 4 frames
Codec ID : V_MPEG4/ISO/AVC
Duration : 2h 12mn
Bit rate : 3 450 Kbps
Width : 1 920 pixels
Height : 1 080 pixels
Display aspect ratio : 16:9 (2.39:1)
Frame rate mode : Constant
Frame rate : 23.976 fps
Color space : YUV
Chroma subsampling : 4:2:0
Bit depth : 8 bits
Scan type : Progressive
Bits/(Pixel*Frame) : 0.069
Stream size : 3.14 GiB (79%)
Title : Rip by Sonda
Writing library : x264
Encoding settings : cabac=1 / ref=4 / deblock=1:-1:-1 / rc=2pass
Default : Yes
Forced : No

Audio #1
ID : 2
Format : AC-3
Format/Info : Audio Coding 3
Mode extension : CM (complete main)
Format settings, Endianness : Big
Codec ID : A_AC3
Duration : 2h 12mn
Bit rate mode : Constant
Bit rate : 448 Kbps
Channel count : 6 channels
Channel positions : Front: L C R, Side: L R, LFE
Sampling rate : 48.0 KHz
Bit depth : 16 bits
Compression mode : Lossy
Stream size : 426 MiB (10%)
Title : AC3 5.1 Dubbing PL
Language : Polish
Default : Yes
Forced : Yes

Audio #2
ID : 3
Format : AC-3
Format/Info : Audio Coding 3
Mode extension : CM (complete main)
Format settings, Endianness : Big
Codec ID : A_AC3
Duration : 2h 12mn
Bit rate mode : Constant
Bit rate : 384 Kbps
Channel count : 6 channels
Channel positions : Front: L C R, Side: L R, LFE
Sampling rate : 48.0 KHz
Bit depth : 16 bits
Compression mode : Lossy
Stream size : 365 MiB (9%)
Title : AC3 5.1 ENG
Language : English
Default : No
Forced : No

Text #1
ID : 4
Format : UTF-8
Codec ID : S_TEXT/UTF8
Codec ID/Info : UTF-8 Plain Text
Title : napisy PL 2D
Language : Polish
Default : No
Forced : No

Text #2
ID : 5
Format : UTF-8
Codec ID : S_TEXT/UTF8
Codec ID/Info : UTF-8 Plain Text
Title : napisy ENG 2D
Language : English
Default : No
Forced : No

Text #3
ID : 6
Format : PGS
Muxing mode : zlib
Codec ID : S_HDMV/PGS
Codec ID/Info : The same subtitle format used on BDs/HD-DVDs
Title : napisy PL 3D
Language : Polish
Default : No
Forced : No

Text #4
ID : 7
Format : PGS
Muxing mode : zlib
Codec ID : S_HDMV/PGS
Codec ID/Info : The same subtitle format used on BDs/HD-DVDs
Title : napisy ENG 3D
Language : English
Default : No
Forced : No

Source:
A/V-Fantastic Beasts and Where to Find Them (2016) Blu-ray 3D CEE 1080p AVC DD5.1- HDCLUB
Thanks - Sonda
Ocena użytkowników Help
Działa(0) | Fake(0) | Nie działa(0) | Wymagane hasło(0) | Wirus(0)
Statystyki seed/leech Ostatnio aktualizowane: 2018-12-22 23:07:10 [Aktualizuj]
Napisano: 27.11.2021 03:32
 
Nikt jeszcze nie skomentował tego torrenta... Może Ty to zrobisz?
Oświadczenie: Pliki prezentowane w katalogu nie znajdują się na serwerach wortalu. Użytkownicy zezwolili na ich udostępnienie. Administrator serwisu BitNova.info oraz właściciel serwera nie może ponieść konsekwencji za to co użytkownicy udostępniają i publikują. Pamiętaj! Nie możesz używać tego serwisu do rozpowszechniania lub ściągania materiałów do których nie masz odpowiednich praw lub licencji. Użytkownicy są odpowiedzialni za przestrzeganie tych zasad.

(Disclaimer: None files presented in the directory aren't hosted on servers vortal. Users allow their release. The administrator of site BitNova.info and owner of the server can not be held responsible for what its users post, or any other actions of its users. You may not use this site to distribute or download any material when you do not have the legal rights to do so. It is your own responsibility to adhere to these terms.)
» Zgłaszanie nadużyć / Abuse