Jedyny taki katalog polskich torrentów w sieci. Najlepsze torrenty w jednym miejscu.

Korzystanie ze strony jest darmowe. W przeciwieństwie do konkurencji nie kasujemy kont użytkowników bez ich wyraźnej prośby.


Torrent: Najdłuższy marsz Billy'ego Lynna 3D Billy Lynn's Long Halftime Walk *2016* [mini HD 1080p 3D Half Over Under DualAudio AC3 BluRay x264 SONDA] [Lektor i Napisy PL] [ENG]

Najdłuższy marsz Billy'ego Lynna 3D   Billy Lynn's Long Halftime Walk *2016* [mini HD 1080p 3D Half Over Under DualAudio AC3 BluRay x264 SONDA] [Lektor i Napisy PL] [ENG] torrent
Dodał: Ishimura
06.05.2017 10:10
Kategoria: Dramat

Rozmiar: 3.88 GB
Seed'ów: 0
Leecher'ów: 0
Pobrań: 0

Kondycja:
 


» Komentarze [0]
» Obserwuj
» Zgłoś plik
User image

Film w wersji 3D Half Over-Under.
Do odtworzenia filmu WYMAGANY odpowiedni sprzęt (TV 3D)
===========================================

Kopia mini-HD 1080p = 3,87 GB

gatunek: Dramat,Komedia,Wojenny
produkcja: Chiny,USA,Wielka Brytania
premiera: 14 października 2016 (świat)
reżyseria: Ang Lee
scenariusz: Simon Beaufoy,Jean-Christophe Castelli

http://www.imdb.com/title/tt2513074/

Obsada:

Joe Alwyn ... Bill Lynn
Kristen Stewart ... Kathryn Lynn
Vin Diesel ... Shroom
Garrett Hedlund ... Dime
Steve Martin ... Norm Oglesby
Chris Tucker ... Albert
Ben Platt ... Josh
Beau Knapp ... Crack

Opis:

Billy Lynn jest młodym weteranem wojny w Iraku. Jednym z ocalałych z wstrząsającej bitwy, którą uchwyciły kamery. Wraca do Stanów Zjednoczonych i na zlecenie rządu, wspólnie z innymi żołnierzami, bierze udział w "trasie promującej" działania zbrojne wśród nieprzychylnych wojnie Amerykanów. Całość kończy się spektakularnym występem w programie telewizyjnym, tuż przed Świętem Dziękczynienia i rozgrywkami amerykańskiej ligi futbolowej - w rekordowej na tamte czasy oglądalności.

Storyline:

Two-time Academy Award® winner Ang Lee brings his extraordinary vision to Billy Lynn's Long Halftime Walk, based on the widely-acclaimed, bestselling novel. The film is told from the point of view of 19-year-old private Billy Lynn (newcomer Joe Alwyn) who, along with his fellow soldiers in Bravo Squad, becomes a hero after a harrowing Iraq battle and is brought home temporarily for a victory tour. Through flashbacks, culminating at the spectacular halftime show of the Thanksgiving Day football game, the film reveals what really happened to the squad - contrasting the realities of the war with America's perceptions. The film also stars Kristen Stewart, Chris Tucker, Garrett Hedlund, with Vin Diesel, and Steve Martin. Lee used new technology, shooting at an ultra-high frame rate for the first time in film history, to create an immersive digital experience helping him dramatize war in a way never seen before. Lee directed and produced the film, from a screenplay by Jean-Christophe ...

Screenshot:

h[img]ttp://i.imgur.com/Urg0Jod.jpg[/img]
User image
User image
User image


Dane techniczne:

General
Format : Matroska
Format version : Version 2
File size : 3.88 GiB
Duration : 1h 52mn
Overall bit rate : 4 926 Kbps
Movie name : Billy.Lynns.Long.Halftime.Walk.3D.2016.PL.HOU.1080p.BDRip.Sonda
Encoded date : UTC 2017-04-02 11:57:45
Writing application : mkvmerge v5.7.0 ('The Whirlwind') built on Jul 8 2012 20:08:51
Writing library : libebml v1.2.3 + libmatroska v1.3.0

Video
ID : 1
Format : AVC
Format/Info : Advanced Video Codec
Format profile : High@L4.1
Format settings, CABAC : Yes
Format settings, ReFrames : 4 frames
Codec ID : V_MPEG4/ISO/AVC
Duration : 1h 52mn
Bit rate : 3 850 Kbps
Width : 1 920 pixels
Height : 1 080 pixels
Display aspect ratio : 16:9 (1.85:1)
Frame rate mode : Constant
Frame rate : 23.976 fps
Color space : YUV
Chroma subsampling : 4:2:0
Bit depth : 8 bits
Scan type : Progressive
Bits/(Pixel*Frame) : 0.077
Stream size : 3.00 GiB (77%)
Title : Rip by Sonda
Writing library : x264
Encoding settings : cabac=1 / ref=4 / deblock=1:-1:-1 / rc=2pass
Default : Yes
Forced : No

Audio #1
ID : 2
Format : AC-3
Format/Info : Audio Coding 3
Mode extension : CM (complete main)
Format settings, Endianness : Big
Codec ID : A_AC3
Duration : 1h 52mn
Bit rate mode : Constant
Bit rate : 384 Kbps
Channel count : 6 channels
Channel positions : Front: L C R, Side: L R, LFE
Sampling rate : 48.0 KHz
Bit depth : 16 bits
Compression mode : Lossy
Stream size : 310 MiB (8%)
Title : AC3 5.1 Lektor PL
Language : Polish
Default : Yes
Forced : Yes

Audio #2
ID : 3
Format : AC-3
Format/Info : Audio Coding 3
Mode extension : CM (complete main)
Format settings, Endianness : Big
Codec ID : A_AC3
Duration : 1h 52mn
Bit rate mode : Constant
Bit rate : 640 Kbps
Channel count : 6 channels
Channel positions : Front: L C R, Side: L R, LFE
Sampling rate : 48.0 KHz
Bit depth : 16 bits
Compression mode : Lossy
Stream size : 516 MiB (13%)
Title : AC3 5.1 ENG
Language : English
Default : No
Forced : No

Text #1
ID : 4
Format : UTF-8
Codec ID : S_TEXT/UTF8
Codec ID/Info : UTF-8 Plain Text
Title : napisy PL 2D
Language : Polish
Default : No
Forced : No

Text #2
ID : 5
Format : UTF-8
Codec ID : S_TEXT/UTF8
Codec ID/Info : UTF-8 Plain Text
Title : napisy ENG 2D
Language : English
Default : No
Forced : No

Text #3
ID : 6
Format : PGS
Muxing mode : zlib
Codec ID : S_HDMV/PGS
Codec ID/Info : The same subtitle format used on BDs/HD-DVDs
Title : napisy PL 3D
Language : Polish
Default : No
Forced : No

Text #4
ID : 7
Format : PGS
Muxing mode : zlib
Codec ID : S_HDMV/PGS
Codec ID/Info : The same subtitle format used on BDs/HD-DVDs
Title : napisy ENG 3D
Language : English
Default : No
Forced : No

Source:
A/V-Billy.Lynns.Long.Halftime.Walk.2016.1080p.3D.BluRay.AVC.DTS-HD.MA.5.1-FGT
Lektor PL - DVD9
Thanks - Sonda


Ocena użytkowników Help
Działa(0) | Fake(0) | Nie działa(0) | Wymagane hasło(0) | Wirus(0)
Statystyki seed/leech Ostatnio aktualizowane: 2018-11-15 23:53:19 [Aktualizuj]
Napisano: 27.11.2021 02:46
 
Nikt jeszcze nie skomentował tego torrenta... Może Ty to zrobisz?
Oświadczenie: Pliki prezentowane w katalogu nie znajdują się na serwerach wortalu. Użytkownicy zezwolili na ich udostępnienie. Administrator serwisu BitNova.info oraz właściciel serwera nie może ponieść konsekwencji za to co użytkownicy udostępniają i publikują. Pamiętaj! Nie możesz używać tego serwisu do rozpowszechniania lub ściągania materiałów do których nie masz odpowiednich praw lub licencji. Użytkownicy są odpowiedzialni za przestrzeganie tych zasad.

(Disclaimer: None files presented in the directory aren't hosted on servers vortal. Users allow their release. The administrator of site BitNova.info and owner of the server can not be held responsible for what its users post, or any other actions of its users. You may not use this site to distribute or download any material when you do not have the legal rights to do so. It is your own responsibility to adhere to these terms.)
» Zgłaszanie nadużyć / Abuse