Jedyny taki katalog polskich torrentów w sieci. Najlepsze torrenty w jednym miejscu.

Korzystanie ze strony jest darmowe. W przeciwieństwie do konkurencji nie kasujemy kont użytkowników bez ich wyraźnej prośby.


Torrent: Łotr 1 Gwiezdne wojny historie 3D Rogue One: A Star Wars Story *2016* [1080p 3D Half Over Under DTS 5 1 AC3 BluRay x264 SONDA] [Dubbing i Napisy PL] [MD Kino] [ENG]

Łotr 1  Gwiezdne wojny   historie 3D   Rogue One: A Star Wars Story *2016* [1080p 3D Half Over Under DTS 5 1 AC3 BluRay x264 SONDA] [Dubbing i Napisy PL] [MD Kino] [ENG] torrent
Dodał: Ishimura
06.05.2017 10:10
Kategoria: Sci-Fi

Rozmiar: 13.45 GB
Seed'ów: 0
Leecher'ów: 0
Pobrań: 0

Kondycja:
 


» Komentarze [0]
» Obserwuj
» Zgłoś plik
User image

Film w wersji 3D Half Over-Under.
Do odtworzenia filmu WYMAGANY odpowiedni sprzęt (TV 3D)
===========================================

gatunek: Przygodowy,Sci-Fi
produkcja: USA
premiera: 15 grudnia 2016 (Polska) 10 grudnia 2016 (świat)
reżyseria: Gareth Edwards
scenariusz: Chris Weitz,Tony Gilroy

http://www.imdb.com/title/tt3748528/

Obsada:

Marcin Hycnar ... Cassian Andor (polski dubbing)
Olga Sarzyńska ... Jyn Erso (polski dubbing)
Wojciech Zieliński ... Bodhi Rook (polski dubbing)
Zbigniew Zamachowski ... K-2SO (polski dubbing)
Mariusz Bonaszewski ... Orson Krennic (polski dubbing)
Bartłomiej Topa ... Chirrut Îmwe (polski dubbing)
Krzysztof Stelmaszyk ... Saw Gerrera (polski dubbing)
Andrzej Blumenfeld ... Baze Malbus (polski dubbing)

Opis:

Grupa rebeliantów podejmuje się misji niemożliwej, próbując wykraść plany budowy Gwiazdy Śmierci, najpotężniejszej broni Imperium. Ten kluczowy dla całego uniwersum Gwiezdnych wojen moment rozpoczyna serię zdarzeń, w których zwykli ludzie dokonują niezwykłych czynów i stają się bohaterami.

Storyline:

All looks lost for the Rebellion against the Empire as they learn of the existence of a new super weapon, the Death Star. Once a possible weakness in its construction is uncovered, the Rebel Alliance must set out on a desperate mission to steal the plans for the Death Star. The future of the entire galaxy now rests upon its success.

Screenshot:

User image
User image
User image
User image


Dane techniczne:

General
Format : Matroska
Format version : Version 2
File size : 13.4 GiB
Duration : 2h 13mn
Overall bit rate : 14.4 Mbps
Movie name : Rogue.One.3D.2016.PL.HOU.1080p.BDRip.Sonda
Encoded date : UTC 2017-04-01 15:30:13
Writing application : mkvmerge v5.7.0 ('The Whirlwind') built on Jul 8 2012 20:08:51
Writing library : libebml v1.2.3 + libmatroska v1.3.0

Video
ID : 1
Format : AVC
Format/Info : Advanced Video Codec
Format profile : High@L4.1
Format settings, CABAC : Yes
Format settings, ReFrames : 4 frames
Codec ID : V_MPEG4/ISO/AVC
Duration : 2h 13mn
Bit rate : 12.0 Mbps
Width : 1 920 pixels
Height : 1 080 pixels
Display aspect ratio : 16:9 (2.39:1)
Frame rate mode : Constant
Frame rate : 23.976 fps
Color space : YUV
Chroma subsampling : 4:2:0
Bit depth : 8 bits
Scan type : Progressive
Bits/(Pixel*Frame) : 0.241
Stream size : 11.0 GiB (82%)
Title : Rip by Sonda
Writing library : x264
Encoding settings : cabac=1 / ref=4 / deblock=1:-1:-1 / rc=2pass
Default : Yes
Forced : No

Audio #1
ID : 2
Format : AC-3
Format/Info : Audio Coding 3
Mode extension : CM (complete main)
Format settings, Endianness : Big
Codec ID : A_AC3
Duration : 2h 13mn
Bit rate mode : Constant
Bit rate : 192 Kbps
Channel count : 2 channels
Channel positions : Front: L R
Sampling rate : 48.0 KHz
Bit depth : 16 bits
Compression mode : Lossy
Stream size : 184 MiB (1%)
Title : AC3 2.0 Dubbing PL - KINO !!!!!
=================================================
Language : Polish
Default : Yes
Forced : Yes

Audio #2
ID : 3
Format : AC-3
Format/Info : Audio Coding 3
Mode extension : CM (complete main)
Format settings, Endianness : Big
Codec ID : A_AC3
Duration : 2h 13mn
Bit rate mode : Constant
Bit rate : 640 Kbps
Channel count : 6 channels
Channel positions : Front: L C R, Side: L R, LFE
Sampling rate : 48.0 KHz
Bit depth : 16 bits
Compression mode : Lossy
Stream size : 613 MiB (4%)
Title : AC3 5.1 ENG
Language : English
Default : No
Forced : No

Audio #3
ID : 4
Format : DTS
Format/Info : Digital Theater Systems
Mode : 16
Format settings, Endianness : Big
Codec ID : A_DTS
Duration : 2h 13mn
Bit rate mode : Constant
Bit rate : 1 509 Kbps
Channel count : 6 channels
Channel positions : Front: L C R, Side: L R, LFE
Sampling rate : 48.0 KHz
Bit depth : 24 bits
Compression mode : Lossy
Stream size : 1.41 GiB (10%)
Title : DTS 5.1 ENG
Language : English
Default : No
Forced : No

Text #1
ID : 5
Format : UTF-8
Codec ID : S_TEXT/UTF8
Codec ID/Info : UTF-8 Plain Text
Title : napisy PL 2D
Language : Polish
Default : No
Forced : No

Text #2
ID : 6
Format : UTF-8
Codec ID : S_TEXT/UTF8
Codec ID/Info : UTF-8 Plain Text
Title : napisy ENG 2D
Language : English
Default : No
Forced : No

Text #3
ID : 7
Format : PGS
Muxing mode : zlib
Codec ID : S_HDMV/PGS
Codec ID/Info : The same subtitle format used on BDs/HD-DVDs
Title : napisy PL 3D
Language : Polish
Default : No
Forced : No

Text #4
ID : 8
Format : PGS
Muxing mode : zlib
Codec ID : S_HDMV/PGS
Codec ID/Info : The same subtitle format used on BDs/HD-DVDs
Title : napisy ENG 3D
Language : English
Default : No
Forced : No

Source:
A/V-Rogue One (2016) 1080p [2D/3D] BD-Remux - HDCLUB
Dubbing PL - Kino
Thanks - Sonda


Ocena użytkowników Help
Działa(0) | Fake(0) | Nie działa(0) | Wymagane hasło(0) | Wirus(0)
Statystyki seed/leech Ostatnio aktualizowane: 2021-11-15 15:01:07 [Aktualizuj]
Napisano: 27.11.2021 03:52
 
Nikt jeszcze nie skomentował tego torrenta... Może Ty to zrobisz?
Oświadczenie: Pliki prezentowane w katalogu nie znajdują się na serwerach wortalu. Użytkownicy zezwolili na ich udostępnienie. Administrator serwisu BitNova.info oraz właściciel serwera nie może ponieść konsekwencji za to co użytkownicy udostępniają i publikują. Pamiętaj! Nie możesz używać tego serwisu do rozpowszechniania lub ściągania materiałów do których nie masz odpowiednich praw lub licencji. Użytkownicy są odpowiedzialni za przestrzeganie tych zasad.

(Disclaimer: None files presented in the directory aren't hosted on servers vortal. Users allow their release. The administrator of site BitNova.info and owner of the server can not be held responsible for what its users post, or any other actions of its users. You may not use this site to distribute or download any material when you do not have the legal rights to do so. It is your own responsibility to adhere to these terms.)
» Zgłaszanie nadużyć / Abuse