Jedyny taki katalog polskich torrentów w sieci. Najlepsze torrenty w jednym miejscu.

Korzystanie ze strony jest darmowe. W przeciwieństwie do konkurencji nie kasujemy kont użytkowników bez ich wyraźnej prośby.


Torrent: Resident Evil: Ostatni rozdział 3D Resident Evil: The Final Chapter *2016* [1080p 3D Half Over Under DTS 5 1 AC3 PLSUBBED BluRay x264 SONDA] [ENG]

Resident Evil: Ostatni rozdział 3D   Resident Evil: The Final Chapter *2016* [1080p 3D Half Over Under DTS 5 1 AC3 PLSUBBED BluRay x264 SONDA] [ENG] torrent
Dodał: Ishimura
06.05.2017 10:03
Kategoria: Horror

Rozmiar: 10.92 GB
Seed'ów: 0
Leecher'ów: 0
Pobrań: 0

Kondycja:
 


» Komentarze [0]
» Obserwuj
» Zgłoś plik
User image

Film w wersji 3D Half Over-Under.
Do odtworzenia filmu WYMAGANY odpowiedni sprzęt (TV 3D)
=================================================
UWAGA: Napisy na stałe wtopione w film. Zapraszam wszystkich chętnych !!!!!!!
==============================================================


gatunek: Horror,Akcja
produkcja: Australia,Francja,Kanada,Niemcy,USA
premiera: 27 stycznia 2017 (Polska) 13 grudnia 2016 (świat)
reżyseria: Paul W.S. Anderson
scenariusz: Paul W.S. Anderson

http://www.imdb.com/title/tt2592614/

Obsada:

Milla Jovovich ... Alice / Alicia Marcus
Iain Glen ... Dr Isaacs
Ali Larter ... Claire Redfield
Shawn Roberts ... Wesker
Eoin Macken ... Doc
Fraser James ... Razor
Ruby Rose ... Abigail
William Levy ... Christian

Opis:

Kolejna odsłona kultowej filmowej serii opartej na jednej z najpopularniejszych w historii gier komputerowych. Piękna i niebezpieczna Alice (Milla Jovovich) zmierzy się z kolejnymi wrogami, którzy zagrażają światu. Również ona nie może czuć się bezpieczna. Pierwsza część filmu miała premierę w 2002 roku, od tego czasu seria zdobyła serca fanów na całym świecie, przynosząc prawie miliard dolarów dochodu. Fenomen serii opiera się na wybuchowej mieszance kina akcji, science fiction, horroru, thrillera i specyficznego poczucia humoru.

Storyline:

Picking up immediately after the events in Resident Evil: Retribution, Alice (Milla Jovovich) is the only survivor of what was meant to be humanity's final stand against the undead. Now, she must return to where the nightmare began - The Hive in Raccoon City, where the Umbrella Corporation is gathering its forces for a final strike against the only remaining survivors of the apocalypse.

Screenshot:

User image
User image
User image
User image


Dane techniczne:

General
Format : Matroska
Format version : Version 2
File size : 10.9 GiB
Duration : 1h 46mn
Overall bit rate : 14.7 Mbps
Movie name : Resident.Evil.The.Final.Chapter.3D.2016.HOU.PLSUBBED.1080p.Sonda
Encoded date : UTC 2017-03-25 21:48:16
Writing application : mkvmerge v5.7.0 ('The Whirlwind') built on Jul 8 2012 20:08:51
Writing library : libebml v1.2.3 + libmatroska v1.3.0

Video
ID : 1
Format : AVC
Format/Info : Advanced Video Codec
Format profile : High@L4.1
Format settings, CABAC : Yes
Format settings, ReFrames : 4 frames
Codec ID : V_MPEG4/ISO/AVC
Duration : 1h 46mn
Bit rate : 12.5 Mbps
Width : 1 920 pixels
Height : 1 080 pixels
Display aspect ratio : 16:9 (2.39:1)
Frame rate mode : Constant
Frame rate : 23.976 fps
Color space : YUV
Chroma subsampling : 4:2:0
Bit depth : 8 bits
Scan type : Progressive
Bits/(Pixel*Frame) : 0.251
Stream size : 9.10 GiB (83%)
Title : PLSUBBED Rip by Sonda
Writing library : x264 core 148 r2638 7599210
Encoding settings : cabac=1 / ref=4 / deblock=1:-1:-1 / rc=2pass
Default : Yes
Forced : No

Audio #1
ID : 2
Format : AC-3
Format/Info : Audio Coding 3
Mode extension : CM (complete main)
Format settings, Endianness : Big
Codec ID : A_AC3
Duration : 1h 46mn
Bit rate mode : Constant
Bit rate : 640 Kbps
Channel count : 6 channels
Channel positions : Front: L C R, Side: L R, LFE
Sampling rate : 48.0 KHz
Bit depth : 16 bits
Compression mode : Lossy
Stream size : 488 MiB (4%)
Title : AC3 5.1 ENG
Language : English
Default : Yes
Forced : Yes

Audio #2
ID : 3
Format : DTS
Format/Info : Digital Theater Systems
Mode : 16
Format settings, Endianness : Big
Codec ID : A_DTS
Duration : 1h 46mn
Bit rate mode : Constant
Bit rate : 1 509 Kbps
Channel count : 6 channels
Channel positions : Front: L C R, Side: L R, LFE
Sampling rate : 48.0 KHz
Bit depth : 16 bits
Compression mode : Lossy
Stream size : 1.12 GiB (10%)
Title : DTS 5.1 ENG
Language : English
Default : No
Forced : No

Source:
A/V-Resident.Evil.The.Final.Chapter.2016.1080p.3D.BluRay.AVC.DTS-HD.MA.7.1-FGT
Thanks - Sonda


Ocena użytkowników Help
Działa(0) | Fake(0) | Nie działa(0) | Wymagane hasło(0) | Wirus(0)
Statystyki seed/leech Ostatnio aktualizowane: 2021-02-10 20:21:57 [Aktualizuj]
Napisano: 27.11.2021 02:44
 
Nikt jeszcze nie skomentował tego torrenta... Może Ty to zrobisz?
Oświadczenie: Pliki prezentowane w katalogu nie znajdują się na serwerach wortalu. Użytkownicy zezwolili na ich udostępnienie. Administrator serwisu BitNova.info oraz właściciel serwera nie może ponieść konsekwencji za to co użytkownicy udostępniają i publikują. Pamiętaj! Nie możesz używać tego serwisu do rozpowszechniania lub ściągania materiałów do których nie masz odpowiednich praw lub licencji. Użytkownicy są odpowiedzialni za przestrzeganie tych zasad.

(Disclaimer: None files presented in the directory aren't hosted on servers vortal. Users allow their release. The administrator of site BitNova.info and owner of the server can not be held responsible for what its users post, or any other actions of its users. You may not use this site to distribute or download any material when you do not have the legal rights to do so. It is your own responsibility to adhere to these terms.)
» Zgłaszanie nadużyć / Abuse