Jedyny taki katalog polskich torrentów w sieci. Najlepsze torrenty w jednym miejscu.

Korzystanie ze strony jest darmowe. W przeciwieństwie do konkurencji nie kasujemy kont użytkowników bez ich wyraźnej prośby.


Torrent: BFG: Bardzo Fajny Gigant 3D The BFG *2016* [mini HD 1080p 3D Half Over Under Dual Audio AC3 BluRay x264 SONDA] [Dubbing i Napisy PL] [ENG]

BFG: Bardzo Fajny Gigant 3D   The BFG *2016* [mini HD 1080p 3D Half Over Under Dual Audio AC3 BluRay x264 SONDA] [Dubbing i Napisy PL] [ENG] torrent
Dodał: Ishimura
06.05.2017 09:57
Kategoria: Fantasy

Rozmiar: 3.98 GB
Seed'ów: 0
Leecher'ów: 0
Pobrań: 0

Kondycja:
 


» Komentarze [0]
» Obserwuj
» Zgłoś plik
User image

Film w wersji 3D Half Over-Under.
Do odtworzenia filmu WYMAGANY odpowiedni sprzęt (TV 3D)
=========================================

Kopia mini-HD 1080p = 3,98 GB

gatunek: Familijny,Fantasy
produkcja: Kanada,USA,Wielka Brytania
premiera: 1 lipca 2016 (Polska) 14 maja 2016 (świat)
reżyseria: Steven Spielberg
scenariusz: Melissa Mathison

http://www.imdb.com/title/tt3691740/

Obsada:

Paweł Wawrzecki ... Bardzo Fajny Gigant (polski dubbing)
Milena Gąsiorek ... Sophie (polski dubbing)
Robert Jarociński ... Mięchospust (polski dubbing)
Małgorzata Zajączkowska ... Królowa (polski dubbing)
Olga Bołądź ... Mary (polski dubbing)
Waldemar Barwiński ... Pan Tibbs (polski dubbing)
Mikołaj Klimek ... Krwiopij (polski dubbing)

Opis:

Porywająca opowieść o małej dziewczynce z sierocińca i tajemniczym Olbrzymie, który odkrywa przed nią cuda i sekrety magicznej krainy. W środku nocy, gdy wszyscy ludzie śpią w najlepsze, mroczne istoty wychodzą z ukrycia i przejmują na kilka chwil cały świat. Takie historie od dziecka słyszała rezolutna dziesięciolatka o imieniu Sophie. Nic więc dziwnego, że kiedy dziewczynka pewnej nocy nie mogła zasnąć, wygramoliła się z łóżka, założyła okulary i wychyliła przez okno, by ujrzeć świat w poświacie księżycowego blasku. Znana jej dobrze ulica dziś wyglądała jakoś inaczej… Nagle z cienia wynurzyło się coś ogromnego i zaczęło zmierzać w jej kierunku.

Storyline:

Ten-year-old Sophie is in for the adventure of a lifetime when she meets the Big Friendly Giant. Naturally scared at first, the young girl soon realizes that the 24-foot behemoth is actually quite gentle and charming. As their friendship grows, Sophie's presence attracts the unwanted attention of Bloodbottler, Fleshlumpeater and other giants. After traveling to London, Sophie and the BFG must convince Queen Elizabeth to help them get rid of all the bad giants once and for all.

Screenshot:

User image
User image
User image
User image


Dane techniczne:

General
Format : Matroska
Format version : Version 2
File size : 3.98 GiB
Duration : 1h 57mn
Overall bit rate : 4 869 Kbps
Movie name : The.BFG.3D.2016.PL.HOU.miniHD.1080p.BDRip.Sonda
Encoded date : UTC 2016-11-26 10:50:19
Writing application : mkvmerge v5.7.0 ('The Whirlwind') built on Jul 8 2012 20:08:51
Writing library : libebml v1.2.3 + libmatroska v1.3.0

Video
ID : 1
Format : AVC
Format/Info : Advanced Video Codec
Format profile : High@L4.1
Format settings, CABAC : Yes
Format settings, ReFrames : 4 frames
Codec ID : V_MPEG4/ISO/AVC
Duration : 1h 57mn
Bit rate : 3 950 Kbps
Width : 1 920 pixels
Height : 1 080 pixels
Display aspect ratio : 16:9 (2.39:1)
Frame rate mode : Constant
Frame rate : 23.976 fps
Color space : YUV
Chroma subsampling : 4:2:0
Bit depth : 8 bits
Scan type : Progressive
Bits/(Pixel*Frame) : 0.079
Stream size : 3.17 GiB (80%)
Title : Rip by Sonda
Writing library : x264
Encoding settings : cabac=1 / ref=4 / deblock=1:-1:-1 / rc=2pass
Default : Yes
Forced : No

Audio #1
ID : 2
Format : AC-3
Format/Info : Audio Coding 3
Mode extension : CM (complete main)
Format settings, Endianness : Big
Codec ID : A_AC3
Duration : 1h 57mn
Bit rate mode : Constant
Bit rate : 448 Kbps
Channel count : 6 channels
Channel positions : Front: L C R, Side: L R, LFE
Sampling rate : 48.0 KHz
Bit depth : 16 bits
Compression mode : Lossy
Stream size : 375 MiB (9%)
Title : AC3 5.1 Dubbing PL
Language : Polish
Default : Yes
Forced : Yes

Audio #2
ID : 3
Format : AC-3
Format/Info : Audio Coding 3
Mode extension : CM (complete main)
Format settings, Endianness : Big
Codec ID : A_AC3
Duration : 1h 57mn
Bit rate mode : Constant
Bit rate : 448 Kbps
Channel count : 6 channels
Channel positions : Front: L C R, Side: L R, LFE
Sampling rate : 48.0 KHz
Bit depth : 16 bits
Compression mode : Lossy
Stream size : 375 MiB (9%)
Title : AC3 5.1 ENG
Language : English
Default : No
Forced : No

Text #1
ID : 4
Format : UTF-8
Codec ID : S_TEXT/UTF8
Codec ID/Info : UTF-8 Plain Text
Title : napisy PL 2D.srt
Language : Polish
Default : No
Forced : No

Text #2
ID : 5
Format : UTF-8
Codec ID : S_TEXT/UTF8
Codec ID/Info : UTF-8 Plain Text
Title : napisy ENG 2D.srt
Language : English
Default : No
Forced : No

Text #3
ID : 6
Format : PGS
Muxing mode : zlib
Codec ID : S_HDMV/PGS
Codec ID/Info : The same subtitle format used on BDs/HD-DVDs
Title : napisy PL 3D.sup
Language : Polish
Default : No
Forced : No

Text #4
ID : 7
Format : PGS
Muxing mode : zlib
Codec ID : S_HDMV/PGS
Codec ID/Info : The same subtitle format used on BDs/HD-DVDs
Title : napisy ENG 3D.sup
Language : English
Default : No
Forced : No

Source:
A/V-The BFG (Big Friendly Giant) 2016 2D & 3D
Dubbing PL - DVD
Thanks - Sonda
Ocena użytkowników Help
Działa(0) | Fake(0) | Nie działa(0) | Wymagane hasło(0) | Wirus(0)
Statystyki seed/leech Ostatnio aktualizowane: 2021-10-29 17:33:06 [Aktualizuj]
Napisano: 27.11.2021 03:49
 
Nikt jeszcze nie skomentował tego torrenta... Może Ty to zrobisz?
Oświadczenie: Pliki prezentowane w katalogu nie znajdują się na serwerach wortalu. Użytkownicy zezwolili na ich udostępnienie. Administrator serwisu BitNova.info oraz właściciel serwera nie może ponieść konsekwencji za to co użytkownicy udostępniają i publikują. Pamiętaj! Nie możesz używać tego serwisu do rozpowszechniania lub ściągania materiałów do których nie masz odpowiednich praw lub licencji. Użytkownicy są odpowiedzialni za przestrzeganie tych zasad.

(Disclaimer: None files presented in the directory aren't hosted on servers vortal. Users allow their release. The administrator of site BitNova.info and owner of the server can not be held responsible for what its users post, or any other actions of its users. You may not use this site to distribute or download any material when you do not have the legal rights to do so. It is your own responsibility to adhere to these terms.)
» Zgłaszanie nadużyć / Abuse