Jedyny taki katalog polskich torrentów w sieci. Najlepsze torrenty w jednym miejscu.

Korzystanie ze strony jest darmowe. W przeciwieństwie do konkurencji nie kasujemy kont użytkowników bez ich wyraźnej prośby.


Torrent: Kapitan Ameryka: Wojna bohaterów 3D Captain America: Civil War *2016* (IMAX Edition) [mini HD 1080p 3D Half Over Under Dual Audio AC3 BluRay x264 SONDA] [Dubbing i Napisy PL] [ENG]

Kapitan Ameryka: Wojna bohaterów 3D   Captain America: Civil War *2016* (IMAX Edition) [mini HD 1080p 3D Half Over Under Dual Audio AC3 BluRay x264 SONDA] [Dubbing i Napisy PL] [ENG] torrent
Dodał: Ishimura
06.05.2017 09:51
Kategoria: Sci-Fi

Rozmiar: 3.96 GB
Seed'ów: 0
Leecher'ów: 0
Pobrań: 0

Kondycja:
 


» Komentarze [0]
» Obserwuj
» Zgłoś plik
User image

Film w wersji 3D Half Over-Under.
Do odtworzenia filmu WYMAGANY odpowiedni sprzęt (TV 3D)
=========================================

Kopia mini-HD 1080p = 3,96 GB

gatunek: Akcja,Sci-Fi
produkcja: Niemcy,USA
premiera: 6 maja 2016 (Polska) 12 kwietnia 2016 (świat)
reżyseria: Anthony Russo,Joe Russo
scenariusz: Christopher Markus,Stephen McFeely

http://www.imdb.com/title/tt3498820/

Obsada:

Paweł Ciołkosz ... Steve Rogers / Kapitan Ameryka (polski dubbing)
Mariusz Bonaszewski ... Tony Stark / Iron Man (polski dubbing)
Jakub Gawlik ... Peter Parker / Spider-Man (polski dubbing)
Paweł Domagała ... Helmut Zemo (polski dubbing)
Wiktoria Gorodeckaja ... Natasha Romanoff / Czarna Wdowa (polski dubbing)
Mateusz Damięcki ... Sam Wilson / Falcon (polski dubbing)

Opis:

W filmie "Kapitan Ameryka: Wojna bohaterów", będącym bezpośrednią kontynuacją hitowego "Avengers: Czas Ultrona", Steve Rogers aka Kapitan Ameryka staje na czele drużyny Avengers, by ponownie ocalić ludzkość przed zagładą. W czasie kolejnej międzynarodowej akcji z udziałem superbohaterów ponownie dochodzi do strat w ludności cywilnej. Rosną więc naciski polityczne, by poddać herosów systemowi nadzoru i utworzyć organ decydujący o stopniu ich zaangażowania w działania militarne. Sytuacja ta poważnie wpływa na atmosferę panującą wśród Avengers, którzy starają się obronić świat przed nowym, nikczemnym nieprzyjacielem.

Storyline:

With many people fearing the actions of super heroes, the government decides to push for the Hero Registration Act, a law that limits a hero's actions. This results in a division in The Avengers. Iron Man stands with this Act, claiming that their actions must be kept in check otherwise cities will continue to be destroyed, but Captain America feels that saving the world is daring enough and that they cannot rely on the government to protect the world. This escalates into an all-out war between Team Iron Man (Iron Man, Black Panther, Vision, Black Widow, War Machine, and Spiderman) and Team Captain America (Captain America, Bucky Barnes, Falcon, Sharon Carter, Scarlet Witch, Hawkeye, and Ant Man) while a new villain emerges.

Screenshot:

User image
User image
User image
User image


Dane techniczne:

General
Format : Matroska
Format version : Version 2
File size : 3.96 GiB
Duration : 2h 27mn
Overall bit rate : 3 839 Kbps
Movie name : Captain.America.Civil.War.3D.IMAX.Edition.2016.PL.HOU.BDRip.1080p.Sonda
Encoded date : UTC 2016-09-04 15:52:00
Writing application : mkvmerge v5.7.0 ('The Whirlwind') built on Jul 8 2012 20:08:51
Writing library : libebml v1.2.3 + libmatroska v1.3.0

Video
ID : 1
Format : AVC
Format/Info : Advanced Video Codec
Format profile : High@L4.1
Format settings, CABAC : Yes
Format settings, ReFrames : 4 frames
Codec ID : V_MPEG4/ISO/AVC
Duration : 2h 27mn
Bit rate : 3 100 Kbps
Width : 1 920 pixels
Height : 1 080 pixels
Display aspect ratio : 16:9 (2.39:1-1.85:1)
Frame rate mode : Constant
Frame rate : 23.976 fps
Color space : YUV
Chroma subsampling : 4:2:0
Bit depth : 8 bits
Scan type : Progressive
Bits/(Pixel*Frame) : 0.062
Stream size : 3.16 GiB (80%)
Title : Rip by Sonda
Writing library : x264 core 148 r2638 7599210
Encoding settings : cabac=1 / ref=4 / deblock=1:-1:-1 / rc=2pass
Default : Yes
Forced : No

Audio #1
ID : 2
Format : AC-3
Format/Info : Audio Coding 3
Mode extension : CM (complete main)
Format settings, Endianness : Big
Codec ID : A_AC3
Duration : 2h 27mn
Bit rate mode : Constant
Bit rate : 256 Kbps
Channel count : 2 channels
Channel positions : Front: L R
Sampling rate : 48.0 KHz
Bit depth : 16 bits
Compression mode : Lossy
Stream size : 270 MiB (7%)
Title : AC3 2.0 Dubbing PL
Language : Polish
Default : Yes
Forced : Yes

Audio #2
ID : 3
Format : AC-3
Format/Info : Audio Coding 3
Mode extension : CM (complete main)
Format settings, Endianness : Big
Codec ID : A_AC3
Duration : 2h 27mn
Bit rate mode : Constant
Bit rate : 448 Kbps
Channel count : 6 channels
Channel positions : Front: L C R, Side: L R, LFE
Sampling rate : 48.0 KHz
Bit depth : 16 bits
Compression mode : Lossy
Stream size : 473 MiB (12%)
Title : AC3 5.1 ENG
Language : English
Default : No
Forced : No

Text #1
ID : 4
Format : UTF-8
Codec ID : S_TEXT/UTF8
Codec ID/Info : UTF-8 Plain Text
Title : napisy PL 2D
Language : Polish
Default : No
Forced : No

Text #2
ID : 5
Format : UTF-8
Codec ID : S_TEXT/UTF8
Codec ID/Info : UTF-8 Plain Text
Title : napisy ENG 2D
Language : English
Default : No
Forced : No

Text #3
ID : 6
Format : PGS
Muxing mode : zlib
Codec ID : S_HDMV/PGS
Codec ID/Info : The same subtitle format used on BDs/HD-DVDs
Title : napisy PL 3D
Language : Polish
Default : No
Forced : No

Text #4
ID : 7
Format : PGS
Muxing mode : zlib
Codec ID : S_HDMV/PGS
Codec ID/Info : The same subtitle format used on BDs/HD-DVDs
Title : napisy ENG 3D
Language : English
Default : No
Forced : No

Source:
A/V- Captain America: Civil War (2016) [IMAX Edition] 1080p [2D/3D] BD-Remux- HDCLUB
Dubbing PL - Captain.America.Civil.War.2016.720p.BluRay.X264-AMIABLE
Thanks - Sonda

Ocena użytkowników Help
Działa(0) | Fake(0) | Nie działa(0) | Wymagane hasło(0) | Wirus(0)
Statystyki seed/leech Ostatnio aktualizowane: 2021-10-23 14:26:07 [Aktualizuj]
Napisano: 27.11.2021 03:28
 
Nikt jeszcze nie skomentował tego torrenta... Może Ty to zrobisz?
Oświadczenie: Pliki prezentowane w katalogu nie znajdują się na serwerach wortalu. Użytkownicy zezwolili na ich udostępnienie. Administrator serwisu BitNova.info oraz właściciel serwera nie może ponieść konsekwencji za to co użytkownicy udostępniają i publikują. Pamiętaj! Nie możesz używać tego serwisu do rozpowszechniania lub ściągania materiałów do których nie masz odpowiednich praw lub licencji. Użytkownicy są odpowiedzialni za przestrzeganie tych zasad.

(Disclaimer: None files presented in the directory aren't hosted on servers vortal. Users allow their release. The administrator of site BitNova.info and owner of the server can not be held responsible for what its users post, or any other actions of its users. You may not use this site to distribute or download any material when you do not have the legal rights to do so. It is your own responsibility to adhere to these terms.)
» Zgłaszanie nadużyć / Abuse