Jedyny taki katalog polskich torrentów w sieci. Najlepsze torrenty w jednym miejscu.

Korzystanie ze strony jest darmowe. W przeciwieństwie do konkurencji nie kasujemy kont użytkowników bez ich wyraźnej prośby.


Torrent: Alicja po drugiej stronie lustra 3D Alice Through the Looking Glass *2016* [mini HD 1080p 3D Half Over Under DualAudio AC3 BluRay x264 SONDA] [Dubbing i Napisy PL] [ENG]

Alicja po drugiej stronie lustra 3D   Alice Through the Looking Glass *2016* [mini HD 1080p 3D Half Over Under DualAudio AC3 BluRay x264 SONDA] [Dubbing i Napisy PL] [ENG] torrent
Dodał: Ishimura
06.05.2017 09:51
Kategoria: Fantasy

Rozmiar: 4.00 GB
Seed'ów: 0
Leecher'ów: 0
Pobrań: 0

Kondycja:
 


» Komentarze [0]
» Obserwuj
» Zgłoś plik
User image

Film w wersji 3D Half Over-Under.
Do odtworzenia filmu WYMAGANY odpowiedni sprzęt (TV 3D)
===========================================

Kopia mini-HD 1080p = 3,99 GB

gatunek: Familijny,Fantasy,Przygodowy
produkcja: USA
premiera: 26 maja 2016 (Polska) 10 maja 2016 (świat)
reżyseria: James Bobin
scenariusz: Linda Woolverton

http://www.imdb.com/title/tt2567026/

Obsada:

Marta Wierzbicka ... Alicja Kingsleigh (polski dubbing)
Jarosław Boberek ... Czas (polski dubbing)
Cezary Pazura ... Szalony Kapelusznik (polski dubbing)
Katarzyna Figura ... Czerwona Królowa (polski dubbing)
Małgorzata Kożuchowska ... Biała Królowa (polski dubbing)
Katarzyna Gniewkowska ... Helena Kingsleigh (polski dubbing)
Piotr Kozłowski ... Hamish (polski dubbing)

Opis:

Alice Kingsleigh (Mia Wasikowska) ostatnie kilka lat spędziła, przemierzając morza i oceany świata, jak niegdyś robił to jej ojciec. Po powrocie do Londynu Alicja natrafia na magiczne lustro, dzięki któremu ponownie przenosi się do fantastycznej Krainy Czarów. Tam czekają na nią starzy znajomi: Biały Królik, Pan Gąsienica, Kot z Cheshire i Szalony Kapelusznik. Okazuje się jednak, że ten ostatni wpadł w poważne tarapaty i nie jest już sobą. By ratować przyjaciela, Alicja wyrusza w przeszłość, podejmując nierówną walkę z Czasem, w której stawką jest ocalenie Kapelusznika.

Storyline:

Alice returns to the magical world of Underland, only to find the Hatter in a horrible state. With the help of her friends, Alice must travel through time to save the Mad Hatter and Underland's fate from the evil clutches of the Red Queen and a clock like creature, known as Time.

Screenshot:

User image
User image
User image
User image


Dane techniczne:

General
Format : Matroska
Format version : Version 2
File size : 4.00 GiB
Duration : 1h 52mn
Overall bit rate : 5 067 Kbps
Movie name : Alice.Through.the.Looking.Glass.3D.2016.PL.HOU.BDRip.1080p.Sonda
Encoded date : UTC 2016-10-02 15:00:47
Writing application : mkvmerge v5.7.0 ('The Whirlwind') built on Jul 8 2012 20:08:51
Writing library : libebml v1.2.3 + libmatroska v1.3.0

Video
ID : 1
Format : AVC
Format/Info : Advanced Video Codec
Format profile : High@L4.1
Format settings, CABAC : Yes
Format settings, ReFrames : 4 frames
Codec ID : V_MPEG4/ISO/AVC
Duration : 1h 52mn
Bit rate : 4 400 Kbps
Width : 1 920 pixels
Height : 1 080 pixels
Display aspect ratio : 16:9 (1.85:1)
Frame rate mode : Constant
Frame rate : 23.976 fps
Color space : YUV
Chroma subsampling : 4:2:0
Bit depth : 8 bits
Scan type : Progressive
Bits/(Pixel*Frame) : 0.089
Stream size : 3.41 GiB (85%)
Title : Rip by Sonda
Writing library : x264 core 148 r2638 7599210
Encoding settings : cabac=1 / ref=4 / deblock=1:-1:-1 / rc=2pass
Default : Yes
Forced : No

Audio #1
ID : 2
Format : AC-3
Format/Info : Audio Coding 3
Mode extension : CM (complete main)
Format settings, Endianness : Big
Codec ID : A_AC3
Duration : 1h 52mn
Bit rate mode : Constant
Bit rate : 320 Kbps
Channel count : 6 channels
Channel positions : Front: L C R, Side: L R, LFE
Sampling rate : 48.0 KHz
Bit depth : 16 bits
Compression mode : Lossy
Stream size : 259 MiB (6%)
Title : AC3 5.1 Dubbing PL z Bluray
Language : Polish
Default : Yes
Forced : Yes

Audio #2
ID : 3
Format : AC-3
Format/Info : Audio Coding 3
Mode extension : CM (complete main)
Format settings, Endianness : Big
Codec ID : A_AC3
Duration : 1h 52mn
Bit rate mode : Constant
Bit rate : 320 Kbps
Channel count : 6 channels
Channel positions : Front: L C R, Side: L R, LFE
Sampling rate : 48.0 KHz
Bit depth : 16 bits
Compression mode : Lossy
Stream size : 259 MiB (6%)
Title : AC3 5.1 ENG
Language : English
Default : No
Forced : No

Text #1
ID : 4
Format : UTF-8
Codec ID : S_TEXT/UTF8
Codec ID/Info : UTF-8 Plain Text
Title : napisy PL 2D.srt
Language : Polish
Default : No
Forced : No

Text #2
ID : 5
Format : UTF-8
Codec ID : S_TEXT/UTF8
Codec ID/Info : UTF-8 Plain Text
Title : napisy ENG 2D.srt
Language : English
Default : No
Forced : No

Text #3
ID : 6
Format : PGS
Muxing mode : zlib
Codec ID : S_HDMV/PGS
Codec ID/Info : The same subtitle format used on BDs/HD-DVDs
Title : napisy PL 3D.sup
Language : Polish
Default : No
Forced : No

Text #4
ID : 7
Format : PGS
Muxing mode : zlib
Codec ID : S_HDMV/PGS
Codec ID/Info : The same subtitle format used on BDs/HD-DVDs
Title : napisy ENG 3D.sup
Language : English
Default : No
Forced : No

Source:
A/V-Alice Through the Looking Glass (2016) Blu-ray.2D/3D.1080p.AVC.DTS-HD.High-Res.5.1-COJONUDO
Thanks - Sonda

Ocena użytkowników Help
Działa(0) | Fake(0) | Nie działa(0) | Wymagane hasło(0) | Wirus(0)
Statystyki seed/leech Ostatnio aktualizowane: 2021-06-29 15:21:40 [Aktualizuj]
Napisano: 01.12.2021 12:37
 
Nikt jeszcze nie skomentował tego torrenta... Może Ty to zrobisz?
Oświadczenie: Pliki prezentowane w katalogu nie znajdują się na serwerach wortalu. Użytkownicy zezwolili na ich udostępnienie. Administrator serwisu BitNova.info oraz właściciel serwera nie może ponieść konsekwencji za to co użytkownicy udostępniają i publikują. Pamiętaj! Nie możesz używać tego serwisu do rozpowszechniania lub ściągania materiałów do których nie masz odpowiednich praw lub licencji. Użytkownicy są odpowiedzialni za przestrzeganie tych zasad.

(Disclaimer: None files presented in the directory aren't hosted on servers vortal. Users allow their release. The administrator of site BitNova.info and owner of the server can not be held responsible for what its users post, or any other actions of its users. You may not use this site to distribute or download any material when you do not have the legal rights to do so. It is your own responsibility to adhere to these terms.)
» Zgłaszanie nadużyć / Abuse