Jedyny taki katalog polskich torrentów w sieci. Najlepsze torrenty w jednym miejscu.

Korzystanie ze strony jest darmowe. W przeciwieństwie do konkurencji nie kasujemy kont użytkowników bez ich wyraźnej prośby.


Torrent: Gwiezdne wojny: Przebudzenie Mocy 3D Star Wars: Episode VII The Force Awakens *2015* [1080p 3D Half Over Under DTS 5 1 AC3 BluRay x264 SONDA] [Lektor Dubbing i Napisy PL] [ENG]

Gwiezdne wojny: Przebudzenie Mocy 3D   Star Wars: Episode VII   The Force Awakens *2015* [1080p 3D Half Over Under DTS 5 1 AC3 BluRay x264 SONDA] [Lektor Dubbing i Napisy PL] [ENG] torrent
Dodał: Ishimura
06.05.2017 09:47
Kategoria: Sci-Fi

Rozmiar: 14.97 GB
Seed'ów: 0
Leecher'ów: 0
Pobrań: 0

Kondycja:
 


» Komentarze [0]
» Obserwuj
» Zgłoś plik
User image

Film w wersji 3D Half Over-Under
Do odtworzenia filmu WYMAGANY odpowiedni sprzęt (TV 3D).
==========================================

gatunek: Przygodowy,Sci-Fi
produkcja: USA
premiera: 18 grudnia 2015 (Polska) 14 grudnia 2015 (świat)
reżyseria: J.J. Abrams
scenariusz: Lawrence Kasdan,J.J. Abrams,Michael Arndt

http://www.imdb.com/title/tt2488496/

Obsada:

Harrison Ford ... Han Solo
Mark Hamill ... Luke Skywalker
Carrie Fisher ... Księżniczka Leia
Adam Driver ... Kylo Ren
Daisy Ridley ... Rey
John Boyega ... Finn
Oscar Isaac ... Poe Dameron
Lupita Nyong'o ... Maz Kanata

Opis:

Akcja filmu rozpoczyna się trzydzieści lat po bitwie o Endor i upadku Sithów. Luke Skywalker (Mark Hamill) przepada bez wieści. Pod jego nieobecność na gruzach Imperium Galaktycznego wyrasta złowroga organizacja Najwyższy Porządek stawiająca sobie za cel zniszczenie ostatniego Jedi. Z poparciem władz Nowej Republiki generał Leia Organa (Carrie Fisher) dowodzi Ruchem Oporu. Pragnie odnaleźć swojego brata oraz przywrócić pokój w Galaktyce. Leia wysyła najlepszego pilota Poe Damerona (Oscar Isaac) na pustynną planetę Jakku, gdzie dawny sprzymierzeniec wpadł na informacje o miejscu pobytu Luke'a. Wkrótce Poe zostaje schwytany przez Kylo Rena (Adam Driver), posługującego się Ciemną Stroną Mocy czciciela Dartha Vadera. Na jednym z krążowników Najwyższego Porządku Dameron znajduje nieoczekiwanego sojusznika w osobie zbuntowanego szturmowca Finna (John Boyega). Tymczasem należący do pilota robot BB-8 spotyka Rey (Daisy Ridley) - tajemniczą samotniczkę i zbieraczkę części posiadającą niezwykłe umiejętności i wrażliwość na Moc...

Storyline:

30 years after the defeat of Darth Vader and the Empire, Rey, a scavenger from the planet Jakku, finds a BB-8 droid that knows the whereabouts of the long lost Luke Skywalker. Rey, as well as a rogue stormtrooper and two smugglers, are thrown into the middle of a battle between the Resistance and the daunting legions of the First Order.

Screenshot:

User image
User image
User image
User image


Dane techniczne:

General
Format : Matroska
Format version : Version 2
File size : 15.0 GiB
Duration : 2h 18mn
Overall bit rate : 15.5 Mbps
Movie name : Star.Wars.Episode.VII.The.Force.Awakens.3D.2015.PL.HOU.BDRip.1080p.Sonda
Encoded date : UTC 2016-10-28 13:50:56
Writing application : mkvmerge v5.7.0 ('The Whirlwind') built on Jul 8 2012 20:08:51
Writing library : libebml v1.2.3 + libmatroska v1.3.0

Video
ID : 1
Format : AVC
Format/Info : Advanced Video Codec
Format profile : High@L4.1
Format settings, CABAC : Yes
Format settings, ReFrames : 4 frames
Codec ID : V_MPEG4/ISO/AVC
Duration : 2h 18mn
Bit rate : 12.5 Mbps
Width : 1 920 pixels
Height : 1 080 pixels
Display aspect ratio : 16:9 (2.39:1)
Frame rate mode : Constant
Frame rate : 23.976 fps
Color space : YUV
Chroma subsampling : 4:2:0
Bit depth : 8 bits
Scan type : Progressive
Bits/(Pixel*Frame) : 0.251
Stream size : 11.8 GiB (79%)
Title : Rip by Sonda
Writing library : x264 core 148 r2638 7599210
Encoding settings : cabac=1 / ref=4 / deblock=1:-1:-1 / rc=2pass
Default : Yes
Forced : No

Audio #1
ID : 2
Format : AC-3
Format/Info : Audio Coding 3
Mode extension : CM (complete main)
Format settings, Endianness : Big
Codec ID : A_AC3
Duration : 2h 18mn
Bit rate mode : Constant
Bit rate : 192 Kbps
Channel count : 2 channels
Channel positions : Front: L R
Sampling rate : 48.0 KHz
Bit depth : 16 bits
Compression mode : Lossy
Stream size : 190 MiB (1%)
Title : AC3 2.0 Lektor PL
Language : Polish
Default : Yes
Forced : Yes

Audio #2
ID : 3
Format : AC-3
Format/Info : Audio Coding 3
Mode extension : CM (complete main)
Format settings, Endianness : Big
Codec ID : A_AC3
Duration : 2h 18mn
Bit rate mode : Constant
Bit rate : 640 Kbps
Channel count : 6 channels
Channel positions : Front: L C R, Side: L R, LFE
Sampling rate : 48.0 KHz
Bit depth : 16 bits
Compression mode : Lossy
Stream size : 632 MiB (4%)
Title : AC3 5.1 Dubbing PL
Language : Polish
Default : No
Forced : No

Audio #3
ID : 4
Format : AC-3
Format/Info : Audio Coding 3
Mode extension : CM (complete main)
Format settings, Endianness : Big
Codec ID : A_AC3
Duration : 2h 18mn
Bit rate mode : Constant
Bit rate : 640 Kbps
Channel count : 6 channels
Channel positions : Front: L C R, Side: L R, LFE
Sampling rate : 48.0 KHz
Bit depth : 16 bits
Compression mode : Lossy
Stream size : 632 MiB (4%)
Title : AC3 5.1 ENG
Language : English
Default : No
Forced : No

Audio #4
ID : 5
Format : DTS
Format/Info : Digital Theater Systems
Mode : 16
Format settings, Endianness : Big
Codec ID : A_DTS
Duration : 2h 18mn
Bit rate mode : Constant
Bit rate : 1 509 Kbps
Channel count : 6 channels
Channel positions : Front: L C R, Side: L R, LFE
Sampling rate : 48.0 KHz
Bit depth : 24 bits
Compression mode : Lossy
Stream size : 1.46 GiB (10%)
Title : DTS 5.1 ENG
Language : English
Default : No
Forced : No

Text #1
ID : 6
Format : UTF-8
Codec ID : S_TEXT/UTF8
Codec ID/Info : UTF-8 Plain Text
Title : napisy PL 2D.srt
Language : Polish
Default : No
Forced : No

Text #2
ID : 7
Format : UTF-8
Codec ID : S_TEXT/UTF8
Codec ID/Info : UTF-8 Plain Text
Title : napisy ENG 2D.srt
Language : English
Default : No
Forced : No

Text #3
ID : 8
Format : PGS
Muxing mode : zlib
Codec ID : S_HDMV/PGS
Codec ID/Info : The same subtitle format used on BDs/HD-DVDs
Title : napisy PL 3D.sup
Language : Polish
Default : No
Forced : No

Text #4
ID : 9
Format : PGS
Muxing mode : zlib
Codec ID : S_HDMV/PGS
Codec ID/Info : The same subtitle format used on BDs/HD-DVDs
Title : napisy ENG 3D.sup
Language : English
Default : No
Forced : No

Source:
A/V-Star Wars: Episode VII - The Force Awakens (2015) 1080p [2D/3D] BD-Remux- HDCLUB
Lektor PL - VOD
Dubbing PL - BD
Thanks - Sonda
Ocena użytkowników Help
Działa(0) | Fake(0) | Nie działa(0) | Wymagane hasło(0) | Wirus(0)
Statystyki seed/leech Ostatnio aktualizowane: 2021-11-09 17:30:26 [Aktualizuj]
Napisano: 01.12.2021 14:17
 
Nikt jeszcze nie skomentował tego torrenta... Może Ty to zrobisz?
Oświadczenie: Pliki prezentowane w katalogu nie znajdują się na serwerach wortalu. Użytkownicy zezwolili na ich udostępnienie. Administrator serwisu BitNova.info oraz właściciel serwera nie może ponieść konsekwencji za to co użytkownicy udostępniają i publikują. Pamiętaj! Nie możesz używać tego serwisu do rozpowszechniania lub ściągania materiałów do których nie masz odpowiednich praw lub licencji. Użytkownicy są odpowiedzialni za przestrzeganie tych zasad.

(Disclaimer: None files presented in the directory aren't hosted on servers vortal. Users allow their release. The administrator of site BitNova.info and owner of the server can not be held responsible for what its users post, or any other actions of its users. You may not use this site to distribute or download any material when you do not have the legal rights to do so. It is your own responsibility to adhere to these terms.)
» Zgłaszanie nadużyć / Abuse