Jedyny taki katalog polskich torrentów w sieci. Najlepsze torrenty w jednym miejscu.

Korzystanie ze strony jest darmowe. W przeciwieństwie do konkurencji nie kasujemy kont użytkowników bez ich wyraźnej prośby.


Torrent: Underworld: Wojny krwi - Underworld Blood Wars *2016*[720p.AC3.BDRip.x264-LEON 345][Lektor i napisy PL]

Underworld: Wojny krwi - Underworld Blood Wars *2016*[720p.AC3.BDRip.x264-LEON 345][Lektor i napisy PL] torrent
Dodał: Leon345
02.04.2017 09:25
Kategoria: Akcja

Rozmiar: 2.45 GB
Seed'ów: 0
Leecher'ów: 0
Pobrań: 0

Kondycja:
 


» Komentarze [0]
» Obserwuj
» Zgłoś plik
Underworld: Wojny krwi - Underworld Blood Wars *2016*720p.BDRip.AC3 5.1.Leon345
==================================================

Gatunek: Horror | Akcja
Czas trwania: 91 min.
Premiera: 02.12.2016 - Polska |24.11.2016 - Świat
Reżyseria: Anna Foerster
Scenariusz: Cory Goodman

http://www.imdb.com/title/tt3717252/

Kolejna część przebojowej serii o rywalizujących na śmierć i życie wampirach i Lykanach. Dwa zwaśnione światy przenikają się w brutalnej walce o supremację i przeżycie. W postać pięknej i przebiegłej Selene ponownie wcieli się Kate Beckinsale.

Obsada:

Kate Beckinsale ... Selene
Theo James ... David
Tobias Menzies ... Marius
Lara Pulver ... Semira
Charles Dance ... Thomas
James Faulkner ... Cassius
Peter Andersson ... Vidar
Clementine Nicholson ... Lena
Bradley James ... Varga
Daisy Head ... Alexia
Oliver Stark ... Gregor

General
Unique ID : 183172051117613044061892788576560086838 (0x89CDA760E4ADA7C19057CEF760B7FF36)
Complete name : F:FilmyFilmy 3DDo wstawieniaUnderworld.Blood.Wars.720p.BDRip.Leon345Underworld.Blood.Wars.720p.BDRip.Leon345.mkv
Format : Matroska
Format version : Version 2
File size : 2.45 GiB
Duration : 1h 31mn
Overall bit rate : 3 833 Kbps
Movie name : Underworld.Blood.Wars.720p.BDRip.Leon345
Encoded date : UTC 2017-04-01 08:51:45
Writing application : mkvmerge v5.7.0 ('The Whirlwind') built on Jul 8 2012 20:08:51
Writing library : libebml v1.2.3 + libmatroska v1.3.0

Video
ID : 1
Format : AVC
Format/Info : Advanced Video Codec
Format profile : High@L4.1
Format settings, CABAC : Yes
Format settings, ReFrames : 6 frames
Codec ID : V_MPEG4/ISO/AVC
Duration : 1h 31mn
Bit rate : 3 049 Kbps
Width : 1 280 pixels
Height : 534 pixels
Display aspect ratio : 2.40:1
Frame rate mode : Constant
Frame rate : 23.976 (24000/1001) fps
Color space : YUV
Chroma subsampling : 4:2:0
Bit depth : 8 bits
Scan type : Progressive
Bits/(Pixel*Frame) : 0.186
Stream size : 1.91 GiB (78%)
Writing library : x264 core 148 r2638 7599210
Encoding settings : cabac=1 / ref=6 / deblock=1:-1:-1 / analyse=0x3:0x113 / me=hex / subme=7 / psy=1 / psy_rd=1.00:0.00 / mixed_ref=1 / me_range=16 / chroma_me=1 / trellis=1 / 8x8dct=1 / cqm=0 / deadzone=21,11 / fast_pskip=0 / chroma_qp_offset=-2 / threads=12 / lookahead_threads=2 / sliced_threads=0 / nr=0 / decimate=1 / interlaced=0 / bluray_compat=0 / constrained_intra=0 / bframes=3 / b_pyramid=2 / b_adapt=2 / b_bias=0 / direct=1 / weightb=1 / open_gop=0 / weightp=2 / keyint=240 / keyint_min=23 / scenecut=40 / intra_refresh=0 / rc_lookahead=40 / rc=2pass / mbtree=1 / bitrate=3049 / ratetol=1.0 / qcomp=0.60 / qpmin=0 / qpmax=69 / qpstep=4 / cplxblur=20.0 / qblur=0.5 / vbv_maxrate=62500 / vbv_bufsize=78125 / nal_hrd=none / filler=0 / ip_ratio=1.40 / aq=1:1.00
Default : Yes
Forced : No

Audio #1
ID : 2
Format : AC-3
Format/Info : Audio Coding 3
Mode extension : CM (complete main)
Format settings, Endianness : Big
Codec ID : A_AC3
Duration : 1h 31mn
Bit rate mode : Constant
Bit rate : 384 Kbps
Channel(s) : 6 channels
Channel positions : Front: L C R, Side: L R, LFE
Sampling rate : 48.0 KHz
Frame rate : 31.250 fps (1536 spf)
Compression mode : Lossy
Stream size : 251 MiB (10%)
Title : AC3 5.1 Lektor PL
Language : Polish
Default : Yes
Forced : No

Audio #2
ID : 3
Format : AC-3
Format/Info : Audio Coding 3
Mode extension : CM (complete main)
Format settings, Endianness : Big
Codec ID : A_AC3
Duration : 1h 31mn
Bit rate mode : Constant
Bit rate : 384 Kbps
Channel(s) : 6 channels
Channel positions : Front: L C R, Side: L R, LFE
Sampling rate : 48.0 KHz
Frame rate : 31.250 fps (1536 spf)
Compression mode : Lossy
Stream size : 251 MiB (10%)
Title : AC3 5.1 ENG
Language : English
Default : No
Forced : No

Text #1
ID : 4
Format : UTF-8
Codec ID : S_TEXT/UTF8
Codec ID/Info : UTF-8 Plain Text
Title : napisy srt.PL
Language : Polish
Default : No
Forced : No

Text #2
ID : 5
Format : UTF-8
Codec ID : S_TEXT/UTF8
Codec ID/Info : UTF-8 Plain Text
Title : napisy srt.ENG
Language : English
Default : No
Forced : No

Text #3
ID : 6
Format : PGS
Muxing mode : zlib
Codec ID : S_HDMV/PGS
Codec ID/Info : Picture based subtitle format used on BDs/HD-DVDs
Title : napisy BD PL
Language : Polish
Default : No
Forced : No

Text #4
ID : 7
Format : PGS
Muxing mode : zlib
Codec ID : S_HDMV/PGS
Codec ID/Info : Picture based subtitle format used on BDs/HD-DVDs
Title : napisy BD ENG
Language : English
Default : No
Forced : No

Menu
00:00:00.000 : en:00:00:00.000
00:04:30.479 : en:00:04:30.479
00:09:25.315 : en:00:09:25.315
00:13:59.964 : en:00:13:59.964
00:18:56.010 : en:00:18:56.010
00:24:27.091 : en:00:24:27.091
00:31:15.957 : en:00:31:15.957
00:36:26.810 : en:00:36:26.810
00:42:17.034 : en:00:42:17.034
00:47:37.646 : en:00:47:37.646
00:52:22.181 : en:00:52:22.181
00:58:59.327 : en:00:58:59.327
01:04:31.659 : en:01:04:31.659
01:08:52.128 : en:01:08:52.128
01:13:47.131 : en:01:13:47.131
01:20:08.512 : en:01:20:08.512

Source[thx]:
A/V-Underworld.Blood.Wars.2016.1080p.BluRay.AVC.DTS-HD.MA.5.1-FGT
Lektor PL - 720p.BRRip.x264.AC3-WiZARDS
Ocena użytkowników Help
Działa(0) | Fake(0) | Nie działa(0) | Wymagane hasło(0) | Wirus(0)
Statystyki seed/leech Ostatnio aktualizowane: 2020-11-10 21:55:27 [Aktualizuj]
Napisano: 20.01.2022 17:34
 
Nikt jeszcze nie skomentował tego torrenta... Może Ty to zrobisz?
Oświadczenie: Pliki prezentowane w katalogu nie znajdują się na serwerach wortalu. Użytkownicy zezwolili na ich udostępnienie. Administrator serwisu BitNova.info oraz właściciel serwera nie może ponieść konsekwencji za to co użytkownicy udostępniają i publikują. Pamiętaj! Nie możesz używać tego serwisu do rozpowszechniania lub ściągania materiałów do których nie masz odpowiednich praw lub licencji. Użytkownicy są odpowiedzialni za przestrzeganie tych zasad.

(Disclaimer: None files presented in the directory aren't hosted on servers vortal. Users allow their release. The administrator of site BitNova.info and owner of the server can not be held responsible for what its users post, or any other actions of its users. You may not use this site to distribute or download any material when you do not have the legal rights to do so. It is your own responsibility to adhere to these terms.)
» Zgłaszanie nadużyć / Abuse