Jedyny taki katalog polskich torrentów w sieci. Najlepsze torrenty w jednym miejscu.

Korzystanie ze strony jest darmowe. W przeciwieństwie do konkurencji nie kasujemy kont użytkowników bez ich wyraźnej prośby.


Torrent: Sing 3D (2016)[BDRip 1080p x264 by alE13 AC3][Dubbing PL/Sub Eng][Eng]

Sing 3D (2016)[BDRip 1080p x264 by alE13 AC3][Dubbing PL/Sub Eng][Eng] torrent
Dodał: alE13
24.03.2017 07:53
Kategoria: Animowane

Rozmiar: 7.89 GB
Seed'ów: 0
Leecher'ów: 0
Pobrań: 0

Kondycja:
 


» Komentarze [1]
» Obserwuj
» Zgłoś plik
User image

http://www.imdb.com/title/tt3470600/
http://www.filmweb.pl/film/Sing-2016-700243

Film w wersji 3D Half Over Under.

Plik zawiera Sample.


reżyseria: Garth Jennings
scenariusz: Garth Jennings
gatunek: Animacja,Komedia,Musical
produkcja: Japonia,USA
premiera: 11-09-2016
muzyka: Joby Talbot
czas: 1h 47min

opis:

In a city of humanoid animals, a hustling theater impresario's attempt to save his theater
with a singing competition becomes grander than he anticipates even as its finalists' find
that their lives will never be the same.

W świecie zamieszkanym przez zwierzęta teatr prowadzony przez koalę Bustera Moona (Matthew McConaughey)
popada w tarapaty. Kochając teatr, zrobi on jednak wszystko, by go ocalić. Ostatnią szansą na przetrwanie
jest wielki konkurs, który pomoże odnaleźć najpiękniejszy głos świata. Głos, który ocali teatr. Do konkursu
staną: nucąca cicho jak mysz pod miotłą Mysz (Seth MacFarlane), nieśmiała Słonica (Tori Kelly), której
towarzyszy pewna siebie matka (Reese Witherspoon), młody gangster Gorilla i punkowa rebeliantka Jeżozwierzyca
(Scarlett Johansson).

User image
User image
User image
User image

obsada:

Matthew McConaughey, Reese Witherspoon, Seth MacFarlane (voice)

dane techniczne:

Sing 3D (2016)-alE13.mkv
Format : Matroska
Format version : Version 4 / Version 2
File size : 7.83 GiB
Duration : 1 h 47 min
Overall bit rate : 10.4 Mb/s
Movie name : 7eventy 5ive (2007)-alE13
Encoded date : UTC 2017-03-23 22:27:56
Writing application : mkvmerge v8.1.0 ('Psychedelic Postcard') 64bit
Writing library : libebml v1.3.1 + libmatroska v1.4.2
Cover : Yes
Attachments : cover.jpg

Video
ID : 1
Format : AVC
Format/Info : Advanced Video Codec
Format profile : High@L4.1
Format settings, CABAC : Yes
Format settings, ReFrames : 2 frames
Codec ID : V_MPEG4/ISO/AVC
Duration : 1 h 47 min
Bit rate : 9 496 kb/s
Width : 1 920 pixels
Height : 1 080 pixels
Display aspect ratio : 16:9
Frame rate mode : Constant
Frame rate : 23.976 (24000/1001) FPS
Color space : YUV
Chroma subsampling : 4:2:0
Bit depth : 8 bits
Scan type : Progressive
Bits/(Pixel*Frame) : 0.191
Stream size : 7.16 GiB (91%)
Title : Sing 3D (2016)-alE13
Writing library : x264 core 142
Default : Yes
Forced : No
Color range : Limited
Color primaries : BT.709
Transfer characteristics : BT.709
Matrix coefficients : BT.709

Audio #1
ID : 2
Format : AC-3
Format/Info : Audio Coding 3
Mode extension : CM (complete main)
Format settings, Endianness : Big
Codec ID : A_AC3
Duration : 1 h 47 min
Bit rate mode : Constant
Bit rate : 640 kb/s
Channel(s) : 6 channels
Channel positions : Front: L C R, Side: L R, LFE
Sampling rate : 48.0 kHz
Frame rate : 31.250 FPS (1536 spf)
Compression mode : Lossy
Stream size : 494 MiB (6%)
Title : Sing 3D (2016)-alE13_AC3
Language : English
Default : No
Forced : No

Audio #2
ID : 3
Format : AC-3
Format/Info : Audio Coding 3
Mode extension : CM (complete main)
Format settings, Endianness : Big
Codec ID : A_AC3
Duration : 1 h 47 min
Bit rate mode : Constant
Bit rate : 256 kb/s
Channel(s) : 2 channels
Channel positions : Front: L R
Sampling rate : 48.0 kHz
Frame rate : 31.250 FPS (1536 spf)
Compression mode : Lossy
Delay relative to video : 24 ms
Stream size : 198 MiB (2%)
Title : Sing 3D (2016)-alE13_AC3_dubbing kino
Language : Polish
Default : Yes
Forced : No

Menu
00:00:00.000 : en:1
00:04:29.351 : en:2
00:10:36.469 : en:3
00:14:04.677 : en:4
00:18:32.653 : en:5
00:25:14.722 : en:6
00:30:04.052 : en:7
00:35:11.776 : en:8
00:40:07.405 : en:9
00:44:36.132 : en:10
00:50:26.649 : en:11
00:55:36.208 : en:12
01:04:40.710 : en:13
01:14:03.981 : en:14
01:19:17.962 : en:15
01:23:59.158 : en:16
01:26:56.461 : en:17
01:30:38.265 : en:18
01:34:47.180 : en:19
01:40:16.010 : en:20
Ocena użytkowników Help
Działa(0) | Fake(0) | Nie działa(0) | Wymagane hasło(0) | Wirus(0)
Statystyki seed/leech Ostatnio aktualizowane: 2019-02-10 13:29:00 [Aktualizuj]
Pan_X
Pan_X
Napisano: 2017-03-29 11:30
 
Niestety dźwięk słabej jakości z kina :-(
Oświadczenie: Pliki prezentowane w katalogu nie znajdują się na serwerach wortalu. Użytkownicy zezwolili na ich udostępnienie. Administrator serwisu BitNova.info oraz właściciel serwera nie może ponieść konsekwencji za to co użytkownicy udostępniają i publikują. Pamiętaj! Nie możesz używać tego serwisu do rozpowszechniania lub ściągania materiałów do których nie masz odpowiednich praw lub licencji. Użytkownicy są odpowiedzialni za przestrzeganie tych zasad.

(Disclaimer: None files presented in the directory aren't hosted on servers vortal. Users allow their release. The administrator of site BitNova.info and owner of the server can not be held responsible for what its users post, or any other actions of its users. You may not use this site to distribute or download any material when you do not have the legal rights to do so. It is your own responsibility to adhere to these terms.)
» Zgłaszanie nadużyć / Abuse