Jedyny taki katalog polskich torrentów w sieci. Najlepsze torrenty w jednym miejscu.

Korzystanie ze strony jest darmowe. W przeciwieństwie do konkurencji nie kasujemy kont użytkowników bez ich wyraźnej prośby.


Torrent: Wilk w owczej skórze-Sheep & Volves 3D (2016)[BDRip 1080p by alE13 AC3/DTS/Eng][Dubbing PL/Eng/Rus][Rus]

Wilk w owczej skórze-Sheep & Volves 3D (2016)[BDRip 1080p by alE13 AC3/DTS/Eng][Dubbing PL/Eng/Rus][Rus] torrent
Dodał: alE13
18.03.2017 18:55
Kategoria: Familijne

Rozmiar: 15.02 GB
Seed'ów: 0
Leecher'ów: 0
Pobrań: 0

Kondycja:
 


» Komentarze [0]
» Obserwuj
» Zgłoś plik
User image

http://www.imdb.com/title/tt3746824/
http://www.filmweb.pl/film/Wilk+w+owczej+sk%C3%B3rze-2016-689437

Full title:

Volki i ovtsy. Beeezumnoe prevrashchenie (IMDB)

Film w wersji 3D Half Over/Under.
Plik zawiera Sample.


reżyseria: Andrey Galat,Maxim Volkov
scenariusz: Maksim Sveshnikov
gatunek: Animacja,Familijny,Komedia
produkcja: Rosja
premiera: 22-04-2016
muzyka: Alexandre Lessertisseur
czas: 1h 24mn

opis:

In a magical faraway land, in a picturesque little village nestled among green meadows and rolling hills, lives a flock of
carefree sheep. But their pastoral and stress-free life is interrupted when a pack of wolves sets up camp in the nearby
ravine. In accordance with ancient traditions, the retiring pack leader Magra announces that his future successor must
prove his right to lead by vanquishing his rivals. When the powerful and blood-thirsty Ragear steps forward, the only wolf
brave enough to challenge him is Grey, the pack's favorite, but a hopeless goof ball. To become a leader and win back
Bianca's love, Grey goes off into the woods, where he discovers a camp of Gypsy rabbits. The fortune-teller rabbit Mami
gives him a magical "transmutation potion." Grey drinks the potion and goes back to the wolves' den, but finds out upon
arrival that he has been transformed into... a ram!

Młody wilk Szary, syn charyzmatycznego wodza stada, wcale nie garnie się do tego, aby zostać jego następcą. Interesują go:
dobra zabawa, tańce i wycie do Księżyca z kolegami, szalone pościgi za owcami i wylegiwanie się na słonecznych polanach.
Jednak pewnego dnia, za sprawą niefortunnego zaklęcia, jego beztroskie życie wywróci się do góry nogami. Pewny siebie
wilczek obudzi się… w owczej skórze! Jeżeli chce wrócić do dawnego życia, musi nauczyć się żyć wśród stada sympatycznych,
ale strasznie rozbrykanych owieczek.

obsada:

JB Blanc, Tom Felton, Ross Marquand (voice)

User image
User image
User image
User image

dane techniczne:

Sheep and Wolves 3D (2016)-alE13.mkv
Format : Matroska
Format version : Version 4 / Version 2
File size : 13.6 GiB
Duration : 1 h 24 min
Overall bit rate : 23.0 Mb/s
Movie name : Sheep and Wolves 3D (2016)-alE1
Encoded date : UTC 2017-03-18 09:11:31
Writing application : mkvmerge v8.1.0 ('Psychedelic Postcard') 64bit
Writing library : libebml v1.3.1 + libmatroska v1.4.2
Cover : Yes
Attachments : Cover.jpg

Video
ID : 1
Format : AVC
Format/Info : Advanced Video Codec
Format profile : High@L4.1
Format settings, CABAC : Yes
Format settings, ReFrames : 2 frames
Codec ID : V_MPEG4/ISO/AVC
Duration : 1 h 24 min
Bit rate : 18.4 Mb/s
Width : 1 920 pixels
Height : 804 pixels
Display aspect ratio : 2.40:1
Frame rate mode : Constant
Frame rate : 23.976 (24000/1001) FPS
Color space : YUV
Chroma subsampling : 4:2:0
Bit depth : 8 bits
Scan type : Progressive
Bits/(Pixel*Frame) : 0.498
Stream size : 10.9 GiB (80%)
Title : Sheep and Wolves 3D (2016)-alE1
Writing library : x264 core
Default : Yes
Forced : No
Color range : Limited
Color primaries : BT.709
Transfer characteristics : BT.709
Matrix coefficients : BT.709

Audio #1
ID : 2
Format : AC-3
Format/Info : Audio Coding 3
Mode extension : CM (complete main)
Format settings, Endianness : Big
Codec ID : A_AC3
Duration : 1 h 24 min
Bit rate mode : Constant
Bit rate : 384 kb/s
Channel(s) : 6 channels
Channel positions : Front: L C R, Side: L R, LFE
Sampling rate : 48.0 kHz
Frame rate : 31.250 FPS (1536 spf)
Compression mode : Lossy
Stream size : 233 MiB (2%)
Title : Sheep and Wolves 3D (2016)-alE13_AC3
Language : Russian
Default : No
Forced : No

Audio #2
ID : 3
Format : DTS
Format/Info : Digital Theater Systems
Format profile : MA / Core
Mode : 16
Format settings, Endianness : Big
Codec ID : A_DTS
Duration : 1 h 24 min
Bit rate mode : Variable / Constant
Bit rate : 3 982 kb/s / 1 509 kb/s
Channel(s) : 6 channels
Channel positions : Front: L C R, Side: L R, LFE
Sampling rate : 48.0 kHz
Frame rate : 93.750 FPS (512 spf)
Bit depth : 24 bits
Compression mode : Lossless / Lossy
Stream size : 2.36 GiB (17%)
Title : VSheep and Wolves 3D (2016)-alE13_DTS
Language : English
Default : No
Forced : No

Audio #3
ID : 4
Format : AC-3
Format/Info : Audio Coding 3
Mode extension : CM (complete main)
Format settings, Endianness : Big
Codec ID : A_AC3
Duration : 1 h 24 min
Bit rate mode : Constant
Bit rate : 256 kb/s
Channel(s) : 2 channels
Channel positions : Front: L R
Sampling rate : 48.0 kHz
Frame rate : 31.250 FPS (1536 spf)
Compression mode : Lossy
Stream size : 155 MiB (1%)
Title : Sheep and Wolves 3D (2016)-alE13
Language : Polish
Default : Yes
Forced : No

Menu
00:00:00.000 : en:(01)00:00:00:000
00:07:16.894 : en:(02)00:07:16:894
00:13:25.346 : en:(03)00:13:25:346
00:23:43.130 : en:(04)00:23:43:130
00:30:17.732 : en:(05)00:30:17:732
00:36:25.391 : en:(06)00:36:25:391
00:43:48.626 : en:(07)00:43:48:626
00:51:03.477 : en:(08)00:51:03:477
00:59:45.415 : en:(09)00:59:45:415
01:05:36.265 : en:(10)01:05:36:265
01:10:56.669 : en:(11)01:10:56:669
01:19:00.819 : en:(12)01:19:00:819
01:24:40.408 : en:(13)01:24:40:408
Ocena użytkowników Help
Działa(0) | Fake(0) | Nie działa(0) | Wymagane hasło(0) | Wirus(0)
Statystyki seed/leech Ostatnio aktualizowane: 2020-01-13 15:01:11 [Aktualizuj]
Napisano: 27.11.2021 03:04
 
Nikt jeszcze nie skomentował tego torrenta... Może Ty to zrobisz?
Oświadczenie: Pliki prezentowane w katalogu nie znajdują się na serwerach wortalu. Użytkownicy zezwolili na ich udostępnienie. Administrator serwisu BitNova.info oraz właściciel serwera nie może ponieść konsekwencji za to co użytkownicy udostępniają i publikują. Pamiętaj! Nie możesz używać tego serwisu do rozpowszechniania lub ściągania materiałów do których nie masz odpowiednich praw lub licencji. Użytkownicy są odpowiedzialni za przestrzeganie tych zasad.

(Disclaimer: None files presented in the directory aren't hosted on servers vortal. Users allow their release. The administrator of site BitNova.info and owner of the server can not be held responsible for what its users post, or any other actions of its users. You may not use this site to distribute or download any material when you do not have the legal rights to do so. It is your own responsibility to adhere to these terms.)
» Zgłaszanie nadużyć / Abuse