Jedyny taki katalog polskich torrentów w sieci. Najlepsze torrenty w jednym miejscu.

Korzystanie ze strony jest darmowe. W przeciwieństwie do konkurencji nie kasujemy kont użytkowników bez ich wyraźnej prośby.


Torrent: Fantastyczne zwierzęta i jak je znaleźć-Fantastic Beasts and Where to Find Them 3D (2016)[BDRip 1080p x264 by alE13 AC3/DTS][Dubbing i Napisy PL/Eng][Eng]

Fantastyczne zwierzęta i jak je znaleźć-Fantastic Beasts and Where to Find Them 3D (2016)[BDRip 1080p x264 by alE13 AC3/DTS][Dubbing i Napisy PL/Eng][Eng] torrent
Dodał: alE13
15.03.2017 08:55
Kategoria: Fantasy

Rozmiar: 10.07 GB
Seed'ów: 0
Leecher'ów: 2
Pobrań: 0

Kondycja:
 


» Komentarze [2]
» Obserwuj
» Zgłoś plik
User image

http://www.imdb.com/title/tt3183660/
http://www.filmweb.pl/film/Fantastyczne+zwierz%C4%99ta+i+jak+je+znale%C5%BA%C4%87-2016-697720

Plik zawiera Sample.
Audio DTS w osobnym pliku.
Audio PL - Kino.

reżyseria: David Yates
scenariusz: J.K. Rowling
gatunek: Familijny,Fantasy,Przygodowy
produkcja: USA,Wielka Brytania
premiera: 08-11-2016
muzyka: James Newton Howard
zdjęcia: Philippe Rousselot
czas: 2h 12min

opis:

The adventures of writer Newt Scamander in New York's secret community of witches and wizards seventy years before Harry Potter reads his book in school.

Siedemdziesiąt lat przed tym, jak Harry Potter czyta książkę autorstwa Newta Skamandera, pisarz przeżywa niezwykłe przygody w tajemniczym, nowojorskim
stowarzyszeniu czarownic i czarowników.

User image
User image
User image
User image

obsada:

Eddie Redmayne, Katherine Waterston, Alison Sudol

dane techniczne:

Fantastic Beasts 3D (2016)-alE13.mkv
Format : Matroska
Format version : Version 4 / Version 2
File size : 7.89 GiB
Duration : 2 h 12 min
Overall bit rate : 8 499 kb/s
Movie name : Fantastic Beasts 3D (2016)-alE13
Encoded date : UTC 2017-03-15 07:13:19
Writing application : mkvmerge v8.1.0 ('Psychedelic Postcard') 64bit
Writing library : libebml v1.3.1 + libmatroska v1.4.2
Cover : Yes
Attachments : cover.jpg

Video
ID : 1
Format : AVC
Format/Info : Advanced Video Codec
Format profile : High@L4.1
Format settings, CABAC : Yes
Format settings, ReFrames : 2 frames
Codec ID : V_MPEG4/ISO/AVC
Duration : 2 h 12 min
Bit rate : 7 845 kb/s
Width : 1 920 pixels
Height : 800 pixels
Display aspect ratio : 2.40:1
Frame rate mode : Constant
Frame rate : 23.976 (24000/1001) FPS
Color space : YUV
Chroma subsampling : 4:2:0
Bit depth : 8 bits
Scan type : Progressive
Bits/(Pixel*Frame) : 0.213
Stream size : 7.28 GiB (92%)
Title : Fantastic Beasts 3D (2016)-alE13
Writing library : x264 core 142
Default : Yes
Forced : No
Color range : Limited
Color primaries : BT.709
Transfer characteristics : BT.709
Matrix coefficients : BT.709

Audio #1
ID : 2
Format : AC-3
Format/Info : Audio Coding 3
Mode extension : CM (complete main)
Format settings, Endianness : Big
Codec ID : A_AC3
Duration : 2 h 12 min
Bit rate mode : Constant
Bit rate : 448 kb/s
Channel(s) : 6 channels
Channel positions : Front: L C R, Side: L R, LFE
Sampling rate : 48.0 kHz
Frame rate : 31.250 FPS (1536 spf)
Compression mode : Lossy
Stream size : 426 MiB (5%)
Title : Fantastic Beasts 3D (2016)-alE13_AC3
Language : English
Default : No
Forced : No

Audio #2
ID : 3
Format : AC-3
Format/Info : Audio Coding 3
Mode extension : CM (complete main)
Format settings, Endianness : Big
Codec ID : A_AC3
Duration : 2 h 12 min
Bit rate mode : Constant
Bit rate : 192 kb/s
Channel(s) : 2 channels
Channel positions : Front: L R
Sampling rate : 48.0 kHz
Frame rate : 31.250 FPS (1536 spf)
Compression mode : Lossy
Stream size : 182 MiB (2%)
Title : Fantastic Beasts 3D (2016)-alE13_AC3_kino
Language : Polish
Default : Yes
Forced : No

Text #1
ID : 4
Format : VobSub
Muxing mode : zlib
Codec ID : S_VOBSUB
Codec ID/Info : Picture based subtitle format used on DVDs
Duration : 2 h 3 min
Bit rate : 6 389 b/s
Count of elements : 1055
Stream size : 5.64 MiB (0%)
Title : Fantastic Beasts 3D (2016)-alE13_IDX
Language : Polish
Default : Yes
Forced : No

Text #2
ID : 5
Format : UTF-8
Codec ID : S_TEXT/UTF8
Codec ID/Info : UTF-8 Plain Text
Duration : 2 h 3 min
Bit rate : 39 b/s
Count of elements : 1055
Stream size : 35.9 KiB (0%)
Title : Fantastic Beasts 3D (2016)-alE13
Language : Polish
Default : No
Forced : No

Text #3
ID : 6
Format : VobSub
Muxing mode : zlib
Codec ID : S_VOBSUB
Codec ID/Info : Picture based subtitle format used on DVDs
Duration : 2 h 11 min
Bit rate : 7 112 b/s
Count of elements : 1599
Stream size : 6.69 MiB (0%)
Title : Fantastic Beasts 3D (2016)-alE13_IDX
Language : English
Default : No
Forced : No

Text #4
ID : 7
Format : UTF-8
Codec ID : S_TEXT/UTF8
Codec ID/Info : UTF-8 Plain Text
Duration : 2 h 11 min
Bit rate : 44 b/s
Count of elements : 1599
Stream size : 43.1 KiB (0%)
Title : Fantastic Beasts 3D (2016)-alE13_SRT
Language : English
Default : No
Forced : No

Menu
00:00:00.000 : en:(01)00:00:00:000
00:08:40.269 : en:(02)00:08:40:269
00:18:55.717 : en:(03)00:18:55:717
00:18:55.718 : en:(04)00:18:55:718
00:28:23.660 : en:(05)00:28:23:660
00:38:34.186 : en:(06)00:38:34:186
00:48:08.594 : en:(07)00:48:08:594
00:58:19.244 : en:(08)00:58:19:244
00:58:19.246 : en:(09)00:58:19:246
01:09:14.692 : en:(10)01:09:14:692
01:17:26.390 : en:(11)01:17:26:390
01:29:33.658 : en:(12)01:29:33:658
01:38:02.082 : en:(13)01:38:02:082
01:38:02.085 : en:(14)01:38:02:085
01:50:27.871 : en:(15)01:50:27:871
01:59:04.470 : en:(16)01:59:04:470
02:04:11.944 : en:(17)02:04:11:944
02:04:12.819 : en:(18)02:04:12:819
Ocena użytkowników Help
Działa(0) | Fake(0) | Nie działa(0) | Wymagane hasło(0) | Wirus(0)
Statystyki seed/leech Ostatnio aktualizowane: 2021-09-16 14:42:54 [Aktualizuj]
Pan_X
Pan_X
Napisano: 2017-03-29 11:36
 
Video OK, ale dubbing PL niestety z kina :-(
tehacjusz7
tehacjusz7
Napisano: 2017-04-01 12:34
 
u mnie srednio dziala ;(
Oświadczenie: Pliki prezentowane w katalogu nie znajdują się na serwerach wortalu. Użytkownicy zezwolili na ich udostępnienie. Administrator serwisu BitNova.info oraz właściciel serwera nie może ponieść konsekwencji za to co użytkownicy udostępniają i publikują. Pamiętaj! Nie możesz używać tego serwisu do rozpowszechniania lub ściągania materiałów do których nie masz odpowiednich praw lub licencji. Użytkownicy są odpowiedzialni za przestrzeganie tych zasad.

(Disclaimer: None files presented in the directory aren't hosted on servers vortal. Users allow their release. The administrator of site BitNova.info and owner of the server can not be held responsible for what its users post, or any other actions of its users. You may not use this site to distribute or download any material when you do not have the legal rights to do so. It is your own responsibility to adhere to these terms.)
» Zgłaszanie nadużyć / Abuse