Jedyny taki katalog polskich torrentów w sieci. Najlepsze torrenty w jednym miejscu.

Korzystanie ze strony jest darmowe. W przeciwieństwie do konkurencji nie kasujemy kont użytkowników bez ich wyraźnej prośby.


Torrent: Przyciąganie-Attraction (2017)[WEBRip 1080p x264 by alE13 AC3][Napisy PL/Eng][Eng]

Przyciąganie-Attraction (2017)[WEBRip 1080p x264 by alE13 AC3][Napisy PL/Eng][Eng] torrent
Dodał: alE13
14.03.2017 20:31
Kategoria: Sci-fi

Rozmiar: 7.96 GB
Seed'ów: 4
Leecher'ów: 3
Pobrań: 16

Kondycja:
 


» Komentarze [1]
» Obserwuj
» Zgłoś plik
User image

http://www.imdb.com/title/tt4731148/
http://www.filmweb.pl/film/Prityazhenie-2017-746894

Plik zawiera Sample.
To nie Hollywood, to coś lepszego, polecam.


reżyseria: Fedor Bondarchuk
gatunek: Dramat,Sci-Fi,Romans
produkcja: Rosja
premiera: 26-01-2017
scenariusz: Oleg Malovichko
czas: 2h 12min

opis:

After an alien ship crash lands onto a Russian city, many who saw it and the occupants
start to question their own existence while there are those who demand the aliens leave Earth.

Po awarii statek obcych ląduje w rosyjskim mieście, wielu, którzy to przeżyli zaczyna zastanawiać
się nad własnym istnieniem, są też tacy, którzy domagają aby obcy opuścili Ziemię.

User image
User image
User image
User image

obsada:

Irina Starshenbaum, Alexander Petrov, Rinal Mukhametov

dane techniczne:

Attraction (2017)-alE13Attraction (2017)-alE13.mkv
Format : Matroska
Format version : Version 4 / Version 2
File size : 7.90 GiB
Duration : 2 h 12 min
Overall bit rate : 8 526 kb/s
Movie name : Attraction (2017)-alE13
Encoded date : UTC 2017-03-14 18:32:11
Writing application : mkvmerge v8.1.0 ('Psychedelic Postcard') 64bit
Writing library : libebml v1.3.1 + libmatroska v1.4.2
Cover : Yes
Attachments : cover.jpg

Video
ID : 1
Format : AVC
Format/Info : Advanced Video Codec
Format profile : High@L4.1
Format settings, CABAC : Yes
Format settings, ReFrames : 2 frames
Codec ID : V_MPEG4/ISO/AVC
Duration : 2 h 12 min
Bit rate : 8 139 kb/s
Width : 1 920 pixels
Height : 800 pixels
Display aspect ratio : 2.40:1
Frame rate mode : Constant
Frame rate : 23.976 (24000/1001) FPS
Color space : YUV
Chroma subsampling : 4:2:0
Bit depth : 8 bits
Scan type : Progressive
Bits/(Pixel*Frame) : 0.221
Stream size : 7.54 GiB (95%)
Title : Attraction (2017)-alE13
Writing library : x264 core 142
Default : Yes
Forced : No
Color range : Limited
Color primaries : BT.709
Transfer characteristics : BT.709
Matrix coefficients : BT.709

Audio
ID : 2
Format : AC-3
Format/Info : Audio Coding 3
Mode extension : CM (complete main)
Format settings, Endianness : Big
Codec ID : A_AC3
Duration : 2 h 12 min
Bit rate mode : Constant
Bit rate : 384 kb/s
Channel(s) : 6 channels
Channel positions : Front: L C R, Side: L R, LFE
Sampling rate : 48.0 kHz
Frame rate : 31.250 FPS (1536 spf)
Compression mode : Lossy
Stream size : 364 MiB (5%)
Title : Attraction (2017)-alE13_AC3
Language : Russian
Default : No
Forced : No

Text #1
ID : 3
Format : UTF-8
Codec ID : S_TEXT/UTF8
Codec ID/Info : UTF-8 Plain Text
Duration : 2 h 0 min
Bit rate : 104 b/s
Count of elements : 1263
Stream size : 92.4 KiB (0%)
Title : Attraction (2017)-alE13_color
Language : Polish
Default : Yes
Forced : No

Text #2
ID : 4
Format : UTF-8
Codec ID : S_TEXT/UTF8
Codec ID/Info : UTF-8 Plain Text
Duration : 2 h 0 min
Bit rate : 54 b/s
Count of elements : 1331
Stream size : 48.1 KiB (0%)
Title : Attraction (2017)-alE13
Language : English
Default : No
Forced : No

Menu
00:00:00.000 : en:1
00:08:20.458 : en:2
00:16:31.407 : en:3
00:23:21.608 : en:4
00:32:30.949 : en:5
00:39:22.068 : en:6
00:46:54.770 : en:7
00:53:36.254 : en:8
01:02:24.240 : en:9
01:09:37.339 : en:10
01:17:30.520 : en:11
01:26:37.984 : en:12
01:30:14.742 : en:13
01:38:56.138 : en:14
01:49:44.619 : en:15
01:59:57.315 : en:16
Ocena użytkowników Help
Działa(0) | Fake(0) | Nie działa(0) | Wymagane hasło(0) | Wirus(0)
Statystyki seed/leech Ostatnio aktualizowane: 2018-06-16 13:37:58 [Aktualizuj]
Radix1916
Radix1916
Napisano: 2017-10-10 18:48
 
prośba o przerobienie napisów; nie pokrywają się z tym co mówią aktorzy, w róznych momentach filmu jest różna dysproporcja
Oświadczenie: Pliki prezentowane w katalogu nie znajdują się na serwerach wortalu. Użytkownicy zezwolili na ich udostępnienie. Administrator serwisu BitNova.info oraz właściciel serwera nie może ponieść konsekwencji za to co użytkownicy udostępniają i publikują. Pamiętaj! Nie możesz używać tego serwisu do rozpowszechniania lub ściągania materiałów do których nie masz odpowiednich praw lub licencji. Użytkownicy są odpowiedzialni za przestrzeganie tych zasad.

(Disclaimer: None files presented in the directory aren't hosted on servers vortal. Users allow their release. The administrator of site BitNova.info and owner of the server can not be held responsible for what its users post, or any other actions of its users. You may not use this site to distribute or download any material when you do not have the legal rights to do so. It is your own responsibility to adhere to these terms.)
» Zgłaszanie nadużyć / Abuse