Jedyny taki katalog polskich torrentów w sieci. Najlepsze torrenty w jednym miejscu.

Korzystanie ze strony jest darmowe. W przeciwieństwie do konkurencji nie kasujemy kont użytkowników bez ich wyraźnej prośby.


Torrent: Pasażerowie-Passengers 3D (2016)[BDRip 1080p x264 by alE13 AC3/DTS][Napisy PL/Eng/Multi Sub][Eng]

Pasażerowie-Passengers 3D (2016)[BDRip 1080p x264 by alE13 AC3/DTS][Napisy PL/Eng/Multi Sub][Eng] torrent
Dodał: alE13
11.03.2017 09:22
Kategoria: Sci-Fi

Rozmiar: 9.00 GB
Seed'ów: 0
Leecher'ów: 3
Pobrań: 0

Kondycja:
 


» Komentarze [2]
» Obserwuj
» Zgłoś plik
User image

http://www.imdb.com/title/tt1355644/
http://www.filmweb.pl/film/Pasa%C5%BCerowie-2016-558175

Film w wersji 3D Half Over/Under.
Plik zawiera Sample.


reżyseria: Morten Tyldum
scenariusz: Jon Spaihts
gatunek: Przygodowy.Sci-Fi
produkcja: USA
premiera: 21-12-2016
muzyka: Thomas Newman
zdjęcia: Rodrigo Prieto
czas: 1h 56min

opis:

A spacecraft traveling to a distant colony planet and transporting thousands of people has
a malfunction in its sleep chambers. As a result, two passengers are awakened 90 years early.

Po wybudzeniu się z hibernacji Jim i Aurora próbują przetrwać podróż do innej galaktyki.

User image
User image
User image
User image

obsada:

Jennifer Lawrence, Chris Pratt, Michael Sheen

dane techniczne:

Passengers 3D (2016)-alE13.mkv
Format : Matroska
Format version : Version 4 / Version 2
File size : 8.93 GiB
Duration : 1 h 56 min
Overall bit rate : 11.0 Mb/s
Movie name : Passengers 3D (2016)-alE13
Encoded date : UTC 2017-03-10 13:48:26
Writing application : mkvmerge v8.1.0 ('Psychedelic Postcard') 64bit
Writing library : libebml v1.3.1 + libmatroska v1.4.2
Cover : Yes
Attachments : cover1.jpg

Video
ID : 1
Format : AVC
Format/Info : Advanced Video Codec
Format profile : High@L4.1
Format settings, CABAC : Yes
Format settings, ReFrames : 2 frames
Codec ID : V_MPEG4/ISO/AVC
Duration : 1 h 56 min
Bit rate : 8 403 kb/s
Width : 1 920 pixels
Height : 1 080 pixels
Display aspect ratio : 16:9
Frame rate mode : Constant
Frame rate : 23.976 (24000/1001) FPS
Color space : YUV
Chroma subsampling : 4:2:0
Bit depth : 8 bits
Scan type : Progressive
Bits/(Pixel*Frame) : 0.169
Stream size : 6.82 GiB (76%)
Title : Passengers 3D (2016)-alE13
Writing library : x264 core 142
Default : Yes
Forced : No
Color range : Limited
Color primaries : BT.709
Transfer characteristics : BT.709
Matrix coefficients : BT.709

Audio #1
ID : 2
Format : AC-3
Format/Info : Audio Coding 3
Mode extension : CM (complete main)
Format settings, Endianness : Big
Codec ID : A_AC3
Duration : 1 h 56 min
Bit rate mode : Constant
Bit rate : 640 kb/s
Channel(s) : 6 channels
Channel positions : Front: L C R, Side: L R, LFE
Sampling rate : 48.0 kHz
Frame rate : 31.250 FPS (1536 spf)
Compression mode : Lossy
Stream size : 532 MiB (6%)
Title : Passengers 3D (2016)-alE13_AC3
Language : English
Default : No
Forced : No

Audio #2
ID : 3
Format : DTS
Format/Info : Digital Theater Systems
Mode : 16
Format settings, Endianness : Big
Codec ID : A_DTS
Duration : 1 h 56 min
Bit rate mode : Constant
Bit rate : 1 509 kb/s
Channel(s) : 6 channels
Channel positions : Front: L C R, Side: L R, LFE
Sampling rate : 48.0 kHz
Frame rate : 93.750 FPS (512 spf)
Bit depth : 16 bits
Compression mode : Lossy
Delay relative to video : 11 ms
Stream size : 1.22 GiB (14%)
Title : Passengers 3D (2016)-alE13_DTS-МASTER
Language : English
Default : Yes
Forced : No

Audio #3
ID : 14
Format : AC-3
Format/Info : Audio Coding 3
Mode extension : CM (complete main)
Format settings, Endianness : Big
Codec ID : A_AC3
Duration : 1 h 56 min
Bit rate mode : Constant
Bit rate : 384 kb/s
Channel(s) : 6 channels
Channel positions : Front: L C R, Side: L R, LFE
Sampling rate : 48.0 kHz
Frame rate : 31.250 FPS (1536 spf)
Compression mode : Lossy
Stream size : 319 MiB (3%)
Title : Passengers 3D (2016)-alE13_Дублированный
Language : Russian
Default : No
Forced : No

Text #1
ID : 4
Format : PGS
Muxing mode : zlib
Codec ID : S_HDMV/PGS
Codec ID/Info : Picture based subtitle format used on BDs/HD-DVDs
Duration : 1 h 54 min
Bit rate : 6 772 b/s
Count of elements : 2408
Stream size : 5.55 MiB (0%)
Title : Passengers 3D (2016)-alE13_PGS
Language : Chinese
Default : No
Forced : No

Text #2
ID : 5
Format : PGS
Muxing mode : zlib
Codec ID : S_HDMV/PGS
Codec ID/Info : Picture based subtitle format used on BDs/HD-DVDs
Duration : 1 h 54 min
Bit rate : 5 448 b/s
Count of elements : 2306
Stream size : 4.46 MiB (0%)
Title : Passengers 3D (2016)-alE13_PGS
Language : French
Default : No
Forced : No

Text #3
ID : 6
Format : PGS
Muxing mode : zlib
Codec ID : S_HDMV/PGS
Codec ID/Info : Picture based subtitle format used on BDs/HD-DVDs
Duration : 1 h 54 min
Bit rate : 6 656 b/s
Count of elements : 2302
Stream size : 5.44 MiB (0%)
Title : Passengers 3D (2016)-alE13_PGS
Language : Indonesian
Default : No
Forced : No

Text #4
ID : 7
Format : PGS
Muxing mode : zlib
Codec ID : S_HDMV/PGS
Codec ID/Info : Picture based subtitle format used on BDs/HD-DVDs
Duration : 1 h 48 min
Bit rate : 4 507 b/s
Count of elements : 2386
Stream size : 3.48 MiB (0%)
Title : Passengers 3D (2016)-alE13_PGS
Language : Korean
Default : No
Forced : No

Text #5
ID : 8
Format : PGS
Muxing mode : zlib
Codec ID : S_HDMV/PGS
Codec ID/Info : Picture based subtitle format used on BDs/HD-DVDs
Duration : 1 h 54 min
Bit rate : 7 495 b/s
Count of elements : 2554
Stream size : 6.13 MiB (0%)
Title : Malay-PGS
Language : Malay
Default : No
Forced : No

Text #6
ID : 9
Format : PGS
Muxing mode : zlib
Codec ID : S_HDMV/PGS
Codec ID/Info : Picture based subtitle format used on BDs/HD-DVDs
Duration : 1 h 54 min
Bit rate : 6 482 b/s
Count of elements : 2282
Stream size : 5.31 MiB (0%)
Title : Portuguese-PGS
Language : Portuguese
Default : No
Forced : No

Text #7
ID : 10
Format : PGS
Muxing mode : zlib
Codec ID : S_HDMV/PGS
Codec ID/Info : Picture based subtitle format used on BDs/HD-DVDs
Duration : 1 h 54 min
Bit rate : 6 434 b/s
Count of elements : 2376
Stream size : 5.27 MiB (0%)
Title : Spanish-PGS
Language : Spanish
Default : No
Forced : No

Text #8
ID : 11
Format : PGS
Muxing mode : zlib
Codec ID : S_HDMV/PGS
Codec ID/Info : Picture based subtitle format used on BDs/HD-DVDs
Duration : 1 h 54 min
Bit rate : 4 662 b/s
Count of elements : 2400
Stream size : 3.82 MiB (0%)
Title : Thai-PGS
Language : Thai
Default : No
Forced : No

Text #9
ID : 12
Format : PGS
Muxing mode : zlib
Codec ID : S_HDMV/PGS
Codec ID/Info : Picture based subtitle format used on BDs/HD-DVDs
Duration : 1 h 54 min
Bit rate : 7 964 b/s
Count of elements : 2366
Stream size : 6.53 MiB (0%)
Title : Vietnamese-PGS
Language : Vietnamese
Default : No
Forced : No

Text #10
ID : 13
Format : PGS
Muxing mode : zlib
Codec ID : S_HDMV/PGS
Codec ID/Info : Picture based subtitle format used on BDs/HD-DVDs
Duration : 1 h 54 min
Bit rate : 213 b/s
Count of elements : 78
Stream size : 179 KiB (0%)
Title : Passengers 3D (2016)-alE13_FORCED-PGS
Language : French
Default : No
Forced : No

Text #11
ID : 15
Format : UTF-8
Codec ID : S_TEXT/UTF8
Codec ID/Info : UTF-8 Plain Text
Duration : 1 h 48 min
Bit rate : 0 b/s
Count of elements : 13
Stream size : 592 Bytes (0%)
Title : Passengers 3D (2016)-alE13
Language : Russian
Default : No
Forced : No

Text #12
ID : 16
Format : UTF-8
Codec ID : S_TEXT/UTF8
Codec ID/Info : UTF-8 Plain Text
Duration : 1 h 54 min
Bit rate : 68 b/s
Count of elements : 1115
Stream size : 57.7 KiB (0%)
Title : Passengers 3D (2016)-alE13
Language : Russian
Default : No
Forced : No

Text #13
ID : 17
Format : UTF-8
Codec ID : S_TEXT/UTF8
Codec ID/Info : UTF-8 Plain Text
Duration : 1 h 54 min
Bit rate : 75 b/s
Count of elements : 1282
Stream size : 63.3 KiB (0%)
Title : Passengers 3D (2016)-alE13
Language : Ukrainian
Default : No
Forced : No

Text #14
ID : 18
Format : UTF-8
Codec ID : S_TEXT/UTF8
Codec ID/Info : UTF-8 Plain Text
Duration : 1 h 48 min
Bit rate : 57 b/s
Count of elements : 1619
Stream size : 45.3 KiB (0%)
Title : Passengers 3D (2016)-alE13_SDH
Language : English
Default : No
Forced : No

Text #15
ID : 19
Format : VobSub
Muxing mode : zlib
Codec ID : S_VOBSUB
Codec ID/Info : Picture based subtitle format used on DVDs
Duration : 1 h 45 min
Bit rate : 6 713 b/s
Count of elements : 959
Stream size : 5.09 MiB (0%)
Title : Passengers 3D (2016)-alE13_VobSub
Language : Polish
Default : Yes
Forced : No

Text #16
ID : 20
Format : VobSub
Muxing mode : zlib
Codec ID : S_VOBSUB
Codec ID/Info : Picture based subtitle format used on DVDs
Duration : 1 h 48 min
Bit rate : 9 006 b/s
Count of elements : 1619
Stream size : 6.98 MiB (0%)
Title : Passengers 3D (2016)-alE13_VobSub
Language : English
Default : No
Forced : No

Menu
00:00:00.000 : en:(01)00:00:00:000
00:07:04.674 : en:(02)00:07:04:674
00:14:38.210 : en:(03)00:14:38:210
00:20:33.648 : en:(04)00:20:33:649
00:25:06.338 : en:(05)00:25:06:338
00:30:30.662 : en:(06)00:30:30:662
00:40:47.987 : en:(07)00:40:47:987
00:50:23.020 : en:(08)00:50:23:020
00:57:28.945 : en:(09)00:57:28:945
01:02:54.812 : en:(10)01:02:54:812
01:10:47.158 : en:(11)01:10:47:159
01:17:48.664 : en:(12)01:17:48:664
01:25:17.028 : en:(13)01:25:17:028
01:31:45.041 : en:(14)01:31:45:041
01:37:53.242 : en:(15)01:37:53:242
01:42:18.549 : en:(16)01:42:18:549
Ocena użytkowników Help
Działa(0) | Fake(0) | Nie działa(0) | Wymagane hasło(0) | Wirus(0)
Statystyki seed/leech Ostatnio aktualizowane: 2021-07-28 17:05:20 [Aktualizuj]
mmkkm
mmkkm
Napisano: 2017-03-20 18:57
 
nie działaja napisy -bluray pionieer-na kompie jest ok ,co może byc przyczyna?
alE13
alE13
Napisano: 2017-03-21 08:02
 
wczytaj napisy srt na Pionieera
Oświadczenie: Pliki prezentowane w katalogu nie znajdują się na serwerach wortalu. Użytkownicy zezwolili na ich udostępnienie. Administrator serwisu BitNova.info oraz właściciel serwera nie może ponieść konsekwencji za to co użytkownicy udostępniają i publikują. Pamiętaj! Nie możesz używać tego serwisu do rozpowszechniania lub ściągania materiałów do których nie masz odpowiednich praw lub licencji. Użytkownicy są odpowiedzialni za przestrzeganie tych zasad.

(Disclaimer: None files presented in the directory aren't hosted on servers vortal. Users allow their release. The administrator of site BitNova.info and owner of the server can not be held responsible for what its users post, or any other actions of its users. You may not use this site to distribute or download any material when you do not have the legal rights to do so. It is your own responsibility to adhere to these terms.)
» Zgłaszanie nadużyć / Abuse