Jedyny taki katalog polskich torrentów w sieci. Najlepsze torrenty w jednym miejscu.

Korzystanie ze strony jest darmowe. W przeciwieństwie do konkurencji nie kasujemy kont użytkowników bez ich wyraźnej prośby.


Torrent: Pluję na twój grób-I Spit On Your Grave (1978)[BDRip 1080p x264 by alE13 AC3/DTS][Napisy PL/Eng][Eng]

Pluję na twój grób-I Spit On Your Grave (1978)[BDRip 1080p x264 by alE13 AC3/DTS][Napisy PL/Eng][Eng] torrent
Dodał: alE13
08.03.2017 14:56
Kategoria: Horror

Rozmiar: 7.93 GB
Seed'ów: 0
Leecher'ów: 0
Pobrań: 0

Kondycja:
 


» Komentarze [0]
» Obserwuj
» Zgłoś plik
User image

http://www.imdb.com/title/tt0077713/
http://www.filmweb.pl/film/Pluj%C4%99+na+tw%C3%B3j+gr%C3%B3b-1978-120958

Plik zawiera Sample.

reżyseria: Meir Zarchi
scenariusz: Meir Zarchi
gatunek: Horror, Dreszczowiec
produkcja: USA
premiera: 23-05-1978
zdjęcia: Yuri Haviv
czas: 1h 41min

opis:

An aspiring writer is repeatedly gang-raped, humiliated, and left for dead by four men
whom she systematically hunts down to seek revenge.

Młoda pisarka pragnie dokonać zemsty na oprawcach, którzy ją zgwałcili.

"Pluję na twój grób" Meira Zarchi to jedna z czołowych pozycji na niesławnej liście "video nasties".
To film, który zaraz po swojej premierze został zakazany w większości krajów świata zachodniego jako
"gloryfikujący przemoc wobec kobiet".

User image
User image
User image
User image

obsada:

Camille Keaton, Eron Tabor, Richard Pace

dane techniczne:

I Spit On Your Grave (1978)-alE13 (1).mkv
Format : Matroska
Format version : Version 4 / Version 2
File size : 7.87 GiB
Duration : 1 h 41 min
Overall bit rate : 11.1 Mb/s
Movie name : I Spit On Your Grave (1978)-alE13
Encoded date : UTC 2017-03-06 22:24:26
Writing application : mkvmerge v7.9.0 ('Birds') 64bit
Writing library : libebml v1.3.1 + libmatroska v1.4.2
Cover : Yes
Attachments : cover.jpg

Video
ID : 1
Format : AVC
Format/Info : Advanced Video Codec
Format profile : High@L4.1
Format settings, CABAC : Yes
Format settings, ReFrames : 2 frames
Codec ID : V_MPEG4/ISO/AVC
Duration : 1 h 41 min
Bit rate : 9 148 kb/s
Width : 1 920 pixels
Height : 1 080 pixels
Display aspect ratio : 16:9
Frame rate mode : Constant
Frame rate : 23.976 (24000/1001) FPS
Color space : YUV
Chroma subsampling : 4:2:0
Bit depth : 8 bits
Scan type : Progressive
Bits/(Pixel*Frame) : 0.184
Stream size : 6.47 GiB (82%)
Title : I Spit On Your Grave (1978)-alE13
Writing library : x264 core 142
Default : Yes
Forced : No
Color range : Limited
Color primaries : BT.709
Transfer characteristics : BT.709
Matrix coefficients : BT.709

Audio #1
ID : 2
Format : AC-3
Format/Info : Audio Coding 3
Mode extension : CM (complete main)
Format settings, Endianness : Big
Codec ID : A_AC3
Duration : 1 h 41 min
Bit rate mode : Constant
Bit rate : 448 kb/s
Channel(s) : 6 channels
Channel positions : Front: L C R, Side: L R, LFE
Sampling rate : 48.0 kHz
Frame rate : 31.250 FPS (1536 spf)
Compression mode : Lossy
Stream size : 325 MiB (4%)
Title : I Spit On Your Grave (1978)-alE13_AC3
Language : English
Default : No
Forced : No

Audio #2
ID : 3
Format : DTS
Format/Info : Digital Theater Systems
Mode : 16
Format settings, Endianness : Big
Codec ID : A_DTS
Duration : 1 h 41 min
Bit rate mode : Constant
Bit rate : 1 509 kb/s
Channel(s) : 6 channels
Channel positions : Front: L C R, Side: L R, LFE
Sampling rate : 48.0 kHz
Frame rate : 93.750 FPS (512 spf)
Bit depth : 24 bits
Compression mode : Lossy
Stream size : 1.07 GiB (14%)
Title : I Spit On Your Grave (1978)-alE13_DTS
Language : English
Default : Yes
Forced : No

Text #1
ID : 4
Format : PGS
Muxing mode : zlib
Codec ID : S_HDMV/PGS
Codec ID/Info : Picture based subtitle format used on BDs/HD-DVDs
Duration : 1 h 40 min
Bit rate : 7 110 b/s
Count of elements : 1700
Stream size : 5.13 MiB (0%)
Title : I Spit On Your Grave (1978)-alE13_(SDH)
Language : English
Default : No
Forced : No

Text #2
ID : 5
Format : UTF-8
Codec ID : S_TEXT/UTF8
Codec ID/Info : UTF-8 Plain Text
Duration : 1 h 38 min
Bit rate : 17 b/s
Count of elements : 533
Stream size : 12.8 KiB (0%)
Title : I Spit On Your Grave (1978)-alE13
Language : Polish
Default : Yes
Forced : No
Ocena użytkowników Help
Działa(0) | Fake(0) | Nie działa(0) | Wymagane hasło(0) | Wirus(0)
Statystyki seed/leech Ostatnio aktualizowane: 2019-03-19 14:42:54 [Aktualizuj]
Napisano: 27.10.2021 03:07
 
Nikt jeszcze nie skomentował tego torrenta... Może Ty to zrobisz?
Oświadczenie: Pliki prezentowane w katalogu nie znajdują się na serwerach wortalu. Użytkownicy zezwolili na ich udostępnienie. Administrator serwisu BitNova.info oraz właściciel serwera nie może ponieść konsekwencji za to co użytkownicy udostępniają i publikują. Pamiętaj! Nie możesz używać tego serwisu do rozpowszechniania lub ściągania materiałów do których nie masz odpowiednich praw lub licencji. Użytkownicy są odpowiedzialni za przestrzeganie tych zasad.

(Disclaimer: None files presented in the directory aren't hosted on servers vortal. Users allow their release. The administrator of site BitNova.info and owner of the server can not be held responsible for what its users post, or any other actions of its users. You may not use this site to distribute or download any material when you do not have the legal rights to do so. It is your own responsibility to adhere to these terms.)
» Zgłaszanie nadużyć / Abuse