Jedyny taki katalog polskich torrentów w sieci. Najlepsze torrenty w jednym miejscu.

Korzystanie ze strony jest darmowe. W przeciwieństwie do konkurencji nie kasujemy kont użytkowników bez ich wyraźnej prośby.


Torrent: Doktor Strange-Doctor Strange (IMAX Edition) 3D (2016)-alE13[BDRip 1080p x264 by alE13 AC3][Dubbing i Napisy PL][Eng]

Doktor Strange-Doctor Strange (IMAX Edition) 3D (2016)-alE13[BDRip 1080p x264 by alE13 AC3][Dubbing i Napisy PL][Eng] torrent
Dodał: alE13
04.03.2017 08:24
Kategoria: Fantasy

Rozmiar: 8.06 GB
Seed'ów: 0
Leecher'ów: 1
Pobrań: 0

Kondycja:
 


» Komentarze [0]
» Obserwuj
» Zgłoś plik
User image

http://www.imdb.com/title/tt1211837/
http://www.filmweb.pl/film/Doktor+Strange-2016-482376

Film w wersji 3D Half Over/Under.
Plik zawiera Sample.


reżyseria: Scott Derrickson
scenariusz: Jon Spaihts,C.Robert Cargill,Scott Derrickson
gatunek: Fantasy,Przygodowy
produkcja: USA
premiera: 13-10-2016
muzyka: Michael Giacchino
zdjęcia: Ben Davis
czas: 1h 54min

opis:

A former neurosurgeon embarks on a journey of healing only to be drawn into the world of the mystic arts.

Potężny czarodziej doktor Strange walczy z siłami ciemności, aby ocalić świat.

User image
User image
User image
User image

obsada:

Benedict Cumberbatch, Chiwetel Ejiofor, Rachel McAdams

dane techniczne:

Doctor Strange (IMAX Edition) 3D (2016)-alE13.mkv
Format : Matroska
Format version : Version 4 / Version 2
File size : 7.99 GiB
Duration : 1 h 54 min
Overall bit rate : 9 954 kb/s
Movie name : Doctor Strange (IMAX Edition) (2016)-alE13
Encoded date : UTC 2017-03-03 19:52:38
Writing application : mkvmerge v7.9.0 ('Birds') 64bit
Writing library : libebml v1.3.1 + libmatroska v1.4.2
Cover : Yes
Attachments : cover.jpg

Video
ID : 1
Format : AVC
Format/Info : Advanced Video Codec
Format profile : High@L4.1
Format settings, CABAC : Yes
Format settings, ReFrames : 2 frames
Codec ID : V_MPEG4/ISO/AVC
Duration : 1 h 54 min
Bit rate : 9 049 kb/s
Width : 1 920 pixels
Height : 1 080 pixels
Display aspect ratio : 16:9
Frame rate mode : Constant
Frame rate : 23.976 (24000/1001) FPS
Color space : YUV
Chroma subsampling : 4:2:0
Bit depth : 8 bits
Scan type : Progressive
Bits/(Pixel*Frame) : 0.182
Stream size : 7.27 GiB (91%)
Title : Doctor Strange (IMAX Edition) (2016)-alE13
Writing library : x264 core 142
Default : Yes
Forced : No
Color range : Limited
Color primaries : BT.709
Transfer characteristics : BT.709
Matrix coefficients : BT.709

Audio #1
ID : 2
Format : AC-3
Format/Info : Audio Coding 3
Mode extension : CM (complete main)
Format settings, Endianness : Big
Codec ID : A_AC3
Duration : 1 h 54 min
Bit rate mode : Constant
Bit rate : 640 kb/s
Channel(s) : 6 channels
Channel positions : Front: L C R, Side: L R, LFE
Sampling rate : 48.0 kHz
Frame rate : 31.250 FPS (1536 spf)
Compression mode : Lossy
Stream size : 526 MiB (6%)
Title : Doctor Strange (IMAX Edition) (2016)-alE13_AC3
Language : English
Default : No
Forced : No

Audio #2
ID : 3
Format : AC-3
Format/Info : Audio Coding 3
Mode extension : CM (complete main)
Format settings, Endianness : Big
Codec ID : A_AC3
Duration : 1 h 52 min
Bit rate mode : Constant
Bit rate : 256 kb/s
Channel(s) : 2 channels
Channel positions : Front: L R
Sampling rate : 48.0 kHz
Frame rate : 31.250 FPS (1536 spf)
Compression mode : Lossy
Delay relative to video : 2 ms
Stream size : 206 MiB (3%)
Title : Doctor Strange (IMAX Edition) 3D (2016)-alE13_AC3
Language : Polish
Default : Yes
Forced : No

Text #1
ID : 4
Format : VobSub
Muxing mode : zlib
Codec ID : S_VOBSUB
Codec ID/Info : Picture based subtitle format used on DVDs
Duration : 1 h 52 min
Bit rate : 5 991 b/s
Count of elements : 999
Stream size : 4.81 MiB (0%)
Title : Doctor Strange (IMAX Edition) 3D (2016)-alE13
Language : Polish
Default : Yes
Forced : No

Text #2
ID : 5
Format : UTF-8
Codec ID : S_TEXT/UTF8
Codec ID/Info : UTF-8 Plain Text
Duration : 1 h 52 min
Bit rate : 35 b/s
Count of elements : 999
Stream size : 29.5 KiB (0%)
Title : Doctor Strange (IMAX Edition) 3D (2016)-alE13_srt
Language : Polish
Default : No
Forced : No

Menu
00:00:00.000 : en:1
00:04:34.564 : en:2
00:10:16.823 : en:3
00:18:32.175 : en:4
00:24:37.040 : en:5
00:31:40.503 : en:6
00:38:33.856 : en:7
00:43:16.180 : en:8
00:48:24.570 : en:9
00:55:34.572 : en:10
01:05:04.434 : en:11
01:12:38.512 : en:12
01:22:14.421 : en:13
01:28:28.712 : en:14
01:35:00.986 : en:15
01:45:06.590 : en:16
Ocena użytkowników Help
Działa(0) | Fake(0) | Nie działa(0) | Wymagane hasło(0) | Wirus(0)
Statystyki seed/leech Ostatnio aktualizowane: 2021-11-14 21:19:34 [Aktualizuj]
Napisano: 01.12.2021 13:42
 
Nikt jeszcze nie skomentował tego torrenta... Może Ty to zrobisz?
Oświadczenie: Pliki prezentowane w katalogu nie znajdują się na serwerach wortalu. Użytkownicy zezwolili na ich udostępnienie. Administrator serwisu BitNova.info oraz właściciel serwera nie może ponieść konsekwencji za to co użytkownicy udostępniają i publikują. Pamiętaj! Nie możesz używać tego serwisu do rozpowszechniania lub ściągania materiałów do których nie masz odpowiednich praw lub licencji. Użytkownicy są odpowiedzialni za przestrzeganie tych zasad.

(Disclaimer: None files presented in the directory aren't hosted on servers vortal. Users allow their release. The administrator of site BitNova.info and owner of the server can not be held responsible for what its users post, or any other actions of its users. You may not use this site to distribute or download any material when you do not have the legal rights to do so. It is your own responsibility to adhere to these terms.)
» Zgłaszanie nadużyć / Abuse