Jedyny taki katalog polskich torrentów w sieci. Najlepsze torrenty w jednym miejscu.

Korzystanie ze strony jest darmowe. W przeciwieństwie do konkurencji nie kasujemy kont użytkowników bez ich wyraźnej prośby.


Torrent: Wilk w owczej skórze-Sheep & Volves (2016)[BDRip 1080p by alE13 DTS/Eng][Napisy PL/Ger][Rus]

Wilk w owczej skórze-Sheep & Volves (2016)[BDRip 1080p by alE13 DTS/Eng][Napisy PL/Ger][Rus] torrent
Dodał: alE13
21.02.2017 10:26
Kategoria: Animowane

Rozmiar: 14.00 GB
Seed'ów: 0
Leecher'ów: 0
Pobrań: 0

Kondycja:
 


» Komentarze [0]
» Obserwuj
» Zgłoś plik
User image

http://www.imdb.com/title/tt3746824/
http://www.filmweb.pl/film/Wilk+w+owczej+sk%C3%B3rze-2016-689437

Full title:

Volki i ovtsy. Beeezumnoe prevrashchenie(IMDB)

Plik zawiera Sample.

reżyseria: Andrey Galat,Maxim Volkov
scenariusz: Maksim Sveshnikov
gatunek: Animacja,Familijny,Komedia
produkcja: Rosja
premiera: 22-04-2016
muzyka: Alexandre Lessertisseur
czas: 1h 24mn

opis:

In a magical faraway land, in a picturesque little village nestled among green meadows and rolling hills, lives a flock of
carefree sheep. But their pastoral and stress-free life is interrupted when a pack of wolves sets up camp in the nearby
ravine. In accordance with ancient traditions, the retiring pack leader Magra announces that his future successor must
prove his right to lead by vanquishing his rivals. When the powerful and blood-thirsty Ragear steps forward, the only wolf
brave enough to challenge him is Grey, the pack's favorite, but a hopeless goof ball. To become a leader and win back
Bianca's love, Grey goes off into the woods, where he discovers a camp of Gypsy rabbits. The fortune-teller rabbit Mami
gives him a magical "transmutation potion." Grey drinks the potion and goes back to the wolves' den, but finds out upon
arrival that he has been transformed into... a ram!

Młody wilk Szary, syn charyzmatycznego wodza stada, wcale nie garnie się do tego, aby zostać jego następcą. Interesują go:
dobra zabawa, tańce i wycie do Księżyca z kolegami, szalone pościgi za owcami i wylegiwanie się na słonecznych polanach.
Jednak pewnego dnia, za sprawą niefortunnego zaklęcia, jego beztroskie życie wywróci się do góry nogami. Pewny siebie
wilczek obudzi się… w owczej skórze! Jeżeli chce wrócić do dawnego życia, musi nauczyć się żyć wśród stada sympatycznych,
ale strasznie rozbrykanych owieczek.

User image
User image
User image
User image

obsada:

JB Blanc, Tom Felton, Ross Marquand (voice)

dane techniczne:

Sheep & Volves (2016)-alE13.mkv
Format : Matroska
Format version : Version 4 / Version 2
File size : 12.6 GiB
Duration : 1 h 24 min
Overall bit rate : 21.3 Mb/s
Movie name : Sheep & Volves (2016)-alE13
Encoded date : UTC 2017-02-21 07:41:03
Writing application : mkvmerge v8.1.0 ('Psychedelic Postcard') 64bit
Writing library : libebml v1.3.1 + libmatroska v1.4.2
Cover : Yes
Attachments : cover.jpg

Video
ID : 1
Format : AVC
Format/Info : Advanced Video Codec
Format profile : High@L4.1
Format settings, CABAC : Yes
Format settings, ReFrames : 3 frames
Format settings, GOP : M=3, N=24
Codec ID : V_MPEG4/ISO/AVC
Duration : 1 h 24 min
Bit rate mode : Constant
Bit rate : 20.0 Mb/s
Width : 1 920 pixels
Height : 1 080 pixels
Display aspect ratio : 16:9
Frame rate mode : Constant
Frame rate : 23.976 (24000/1001) FPS
Standard : NTSC
Color space : YUV
Chroma subsampling : 4:2:0
Bit depth : 8 bits
Scan type : Progressive
Bits/(Pixel*Frame) : 0.402
Stream size : 11.7 GiB (93%)
Title : Sheep & Volves (2016)-alE13
Default : No
Forced : No
Color range : Limited
Color primaries : BT.709
Transfer characteristics : BT.709
Matrix coefficients : BT.709

Audio
ID : 2
Format : DTS
Format/Info : Digital Theater Systems
Mode : 16
Format settings, Endianness : Big
Codec ID : A_DTS
Duration : 1 h 24 min
Bit rate mode : Constant
Bit rate : 1 509 kb/s
Channel(s) : 6 channels
Channel positions : Front: L C R, Side: L R, LFE
Sampling rate : 48.0 kHz
Frame rate : 93.750 FPS (512 spf)
Bit depth : 24 bits
Compression mode : Lossy
Stream size : 915 MiB (7%)
Title : Sheep & Volves (2016)-alE13
Language : English
Default : No
Forced : No

Text #1
ID : 3
Format : PGS
Muxing mode : zlib
Codec ID : S_HDMV/PGS
Codec ID/Info : Picture based subtitle format used on BDs/HD-DVDs
Duration : 1 h 18 min
Bit rate : 18.2 kb/s
Count of elements : 2122
Stream size : 10.2 MiB (0%)
Title : Sheep & Volves (2016)-alE13
Language : German
Default : No
Forced : No

Text #2
ID : 4
Format : UTF-8
Codec ID : S_TEXT/UTF8
Codec ID/Info : UTF-8 Plain Text
Duration : 1 h 18 min
Bit rate : 131 b/s
Count of elements : 1062
Stream size : 76.1 KiB (0%)
Title : Sheep & Volves (2016)-alE13
Language : Polish
Default : Yes
Forced : No

Menu
00:00:00.000 : en:Chapter 01
00:07:16.894 : en:Chapter 02
00:13:25.012 : en:Chapter 03
00:23:43.130 : en:Chapter 04
00:30:17.482 : en:Chapter 05
00:36:25.391 : en:Chapter 06
00:43:48.626 : en:Chapter 07
00:51:03.477 : en:Chapter 08
00:59:45.039 : en:Chapter 09
01:05:35.973 : en:Chapter 10
01:10:56.377 : en:Chapter 11
01:19:00.819 : en:Chapter 12
01:24:40.784 : en:Chapter 13
Ocena użytkowników Help
Działa(0) | Fake(0) | Nie działa(0) | Wymagane hasło(0) | Wirus(0)
Statystyki seed/leech Ostatnio aktualizowane: 2019-05-20 09:34:42 [Aktualizuj]
Napisano: 24.01.2022 00:49
 
Nikt jeszcze nie skomentował tego torrenta... Może Ty to zrobisz?
Oświadczenie: Pliki prezentowane w katalogu nie znajdują się na serwerach wortalu. Użytkownicy zezwolili na ich udostępnienie. Administrator serwisu BitNova.info oraz właściciel serwera nie może ponieść konsekwencji za to co użytkownicy udostępniają i publikują. Pamiętaj! Nie możesz używać tego serwisu do rozpowszechniania lub ściągania materiałów do których nie masz odpowiednich praw lub licencji. Użytkownicy są odpowiedzialni za przestrzeganie tych zasad.

(Disclaimer: None files presented in the directory aren't hosted on servers vortal. Users allow their release. The administrator of site BitNova.info and owner of the server can not be held responsible for what its users post, or any other actions of its users. You may not use this site to distribute or download any material when you do not have the legal rights to do so. It is your own responsibility to adhere to these terms.)
» Zgłaszanie nadużyć / Abuse