Jedyny taki katalog polskich torrentów w sieci. Najlepsze torrenty w jednym miejscu.

Korzystanie ze strony jest darmowe. W przeciwieństwie do konkurencji nie kasujemy kont użytkowników bez ich wyraźnej prośby.


Torrent: Alan Quatermain i zaginione Miasto Złota / Allan Quatermain and the lost city of gold *1986* [720p.BRRip.x264] [Lektor pl]

Alan Quatermain i zaginione Miasto Złota / Allan Quatermain and the lost city of gold *1986* [720p.BRRip.x264] [Lektor pl] torrent
Dodał: Draxoo7
30.11.2015 22:23
Kategoria: Przygodowe

Rozmiar: 1.50 GB
Seed'ów: 0
Leecher'ów: 0
Pobrań: 0

Kondycja:
 


» Komentarze [0]
» Obserwuj
» Zgłoś plik
Alan Quatermain i zaginione Miasto Złota (1986) Allan Quatermain and the Lost City of Gold

Przygodowy | KomediaUSA99 minut
Reżyseria | Gary Nelson
Scenariusz | H. Rider Haggard (powieść "Allan Quatermain"), Gene Quintano

Opis:
Tytułowy bohater filmu przedziera się przez bezdroża dżungli w poszukiwaniu zaginionego brata. Wraz z towarzyszącą mu ekipą stają u wrót zaginionego, legendarnego miasta i mirażu złotych gór..

Obsada:
Richard Chamberlain ... Allan Quatermain
Sharon Stone ... Jesse Huston
James Earl Jones ... Umslopogaas
Henry Silva ... Agon
Robert Donner ... Swarma
Doghmi Larbi ... Nasta
Aileen Marson ... Królowa Nyleptha
Cassandra Peterson ... Sorais

Info techniczne:
Format : MPEG-4
Format profile : Base Media
Codec ID : isom
File size : 1.50 GiB
Duration : 1h 39mn
Overall bit rate mode : Variable
Overall bit rate : 2 152 Kbps
Album : Rodimus
Performer : Rodimus
Encoded date : UTC 2015-08-07 21:44:44
Tagged date : UTC 2015-08-07 21:44:44
Writing application : Lavf51.12.1
Copyright : Rip bt Rodimus

Video
ID : 1
Format : AVC
Format/Info : Advanced Video Codec
Format profile : Baseline@L3.1
Format settings, CABAC : No
Format settings, ReFrames : 1 frame
Format settings, GOP : M=1, N=12
Codec ID : avc1
Codec ID/Info : Advanced Video Coding
Duration : 1h 39mn
Bit rate : 1 996 Kbps
Width : 1 132 pixels
Height : 480 pixels
Display aspect ratio : 2.35:1
Frame rate mode : Constant
Frame rate : 23.976 fps
Color space : YUV
Chroma subsampling : 4:2:0
Bit depth : 8 bits
Scan type : Progressive
Bits/(Pixel*Frame) : 0.153
Stream size : 1.39 GiB (93%)
Language : English
Encoded date : UTC 2015-08-07 21:44:44
Tagged date : UTC 2015-08-07 21:44:44

Audio
ID : 2
Format : AAC
Format/Info : Advanced Audio Codec
Format profile : LC
Codec ID : 40
Duration : 1h 39mn
Bit rate mode : Variable
Bit rate : 152 Kbps
Channel(s) : 2 channels
Channel positions : Front: L R
Sampling rate : 44.1 KHz
Compression mode : Lossy
Stream size : 108 MiB (7%)
Language : Polish
Encoded date : UTC 2015-08-07 21:44:44
Tagged date : UTC 2015-08-07 21:44:44
Ocena użytkowników Help
Działa(0) | Fake(0) | Nie działa(0) | Wymagane hasło(0) | Wirus(0)
Statystyki seed/leech Ostatnio aktualizowane: 2019-12-01 09:17:36 [Aktualizuj]
Napisano: 28.11.2021 06:01
 
Nikt jeszcze nie skomentował tego torrenta... Może Ty to zrobisz?
Oświadczenie: Pliki prezentowane w katalogu nie znajdują się na serwerach wortalu. Użytkownicy zezwolili na ich udostępnienie. Administrator serwisu BitNova.info oraz właściciel serwera nie może ponieść konsekwencji za to co użytkownicy udostępniają i publikują. Pamiętaj! Nie możesz używać tego serwisu do rozpowszechniania lub ściągania materiałów do których nie masz odpowiednich praw lub licencji. Użytkownicy są odpowiedzialni za przestrzeganie tych zasad.

(Disclaimer: None files presented in the directory aren't hosted on servers vortal. Users allow their release. The administrator of site BitNova.info and owner of the server can not be held responsible for what its users post, or any other actions of its users. You may not use this site to distribute or download any material when you do not have the legal rights to do so. It is your own responsibility to adhere to these terms.)
» Zgłaszanie nadużyć / Abuse