Jedyny taki katalog polskich torrentów w sieci. Najlepsze torrenty w jednym miejscu.

Korzystanie ze strony jest darmowe. W przeciwieństwie do konkurencji nie kasujemy kont użytkowników bez ich wyraźnej prośby.


Torrent: Kapitan Ameryka Zimowy żołnierz / Captain America The Winter Soldier (2014) [Multi] [720p.BluRay.x264.DTS.AC3-DX] [Lektor i Napisy PL]

Kapitan Ameryka Zimowy żołnierz / Captain America The Winter Soldier (2014) [Multi] [720p.BluRay.x264.DTS.AC3-DX] [Lektor i Napisy PL] torrent
Dodał: aladyn1234
19.07.2015 13:18
Kategoria: Akcja

Rozmiar: 6.74 GB
Seed'ów: 0
Leecher'ów: 0
Pobrań: 0

Kondycja:
 


» Komentarze [0]
» Obserwuj
» Zgłoś plik
Tytuł: Captain America: The Winter Soldier
Polski Tytuł: Kapitan Ameryka: Zimowy żołnierz
====================

Ocena: IMDB - 8.1/10 (169.144), Filmweb - 7.6/10 (22.304)
Produkcja: USA
Gatunek: Akcja, Sci-Fi
Czas trwania: 135 min.
Premiera: 26.03.2014 - Polska, 13.03.2014 - Świat
Reżyseria: Anthony Russo, Joe Russo
Scenariusz: Christopher Markus, Stephen McFeely


[obsada]
====================
★ Chris Evans ... Steve Rogers / Kapitan Ameryka
★ Samuel L.Jackson ... Nick Fury
★ Scarlett Johansson ... Natasha Romanoff / Czarna Wdowa
★ Robert Redford ... Alexander Pierce
★ Sebastian Stan ... Bucky Barnes / Zimowy Żołnierz
★ Anthony Mackie ... Sam Wilson / Falcon
★ Cobie Smulders ... Maria Hill
★ Frank Grillo ... Brock Rumlow


[opis]
====================
Kapitan Ameryka zostaje wplątany w sieć zagrażającej całemu światu intrygi. By ujawnić spisek superbohater łączy siły z Czarną Wdową (Scarlett Johansson). Kiedy już wreszcie kryzys wydaje się być zażegnany, niespodziewanie pojawia się nowy, potężny wróg - Zimowy żołnierz...


[dane]
====================
Format : Matroska
File size : 6.74 GiB
Duration : 2h 15mn
Overall bit rate : 7 105 Kbps
Video #1
ID : 1
Format : AVC
Format/Info : Advanced Video Codec
Format profile : High@L4.1
Codec ID : V_MPEG4/ISO/AVC
Duration : 2h 15mn
Bit rate : 5 070 Kbps
Width : 1 280 pixels
Height : 536 pixels
Display aspect ratio : 2.35:1
Frame rate : 59.940 fps
Resolution : 24 bits
Audio #2
ID : 2
Format : DTS
Format/Info : Digital Theater Systems
Codec ID : A_DTS
Duration : 2h 15mn
Bit rate mode : Constant
Bit rate : 1 510 Kbps
Channel(s) : 6 channels
Channel positions : Front: L C R, Surround: L R, LFE
Sampling rate : 48.0 KHz
Resolution : 24 bits
Video delay : 36ms
Stream size : 1.43 GiB (21%)
Title : English DTS 5.1 - 1510 Kbps
Audio #3
ID : 3
Format : AC-3
Format/Info : Audio Coding 3
Codec ID : A_AC3
Duration : 2h 15mn
Bit rate mode : Constant
Bit rate : 384 Kbps
Channel(s) : 6 channels
Channel positions : Front: L C R, Surround: L R, LFE
Sampling rate : 48.0 KHz
Video delay : 4ms
Stream size : 373 MiB (5%)
Title : Polish AC3 5.1 - 348 Kbps
Language : Polish
Text #4
ID : 4
Format : SSA
Codec ID : S_TEXT/SSA
Codec ID/Info : Sub Station Alpha
Title : Polish SSA
Language : Polish
Ocena użytkowników Help
Działa(0) | Fake(0) | Nie działa(0) | Wymagane hasło(0) | Wirus(0)
Statystyki seed/leech Ostatnio aktualizowane: 2021-08-20 15:13:59 [Aktualizuj]
Napisano: 27.01.2022 18:57
 
Nikt jeszcze nie skomentował tego torrenta... Może Ty to zrobisz?
Oświadczenie: Pliki prezentowane w katalogu nie znajdują się na serwerach wortalu. Użytkownicy zezwolili na ich udostępnienie. Administrator serwisu BitNova.info oraz właściciel serwera nie może ponieść konsekwencji za to co użytkownicy udostępniają i publikują. Pamiętaj! Nie możesz używać tego serwisu do rozpowszechniania lub ściągania materiałów do których nie masz odpowiednich praw lub licencji. Użytkownicy są odpowiedzialni za przestrzeganie tych zasad.

(Disclaimer: None files presented in the directory aren't hosted on servers vortal. Users allow their release. The administrator of site BitNova.info and owner of the server can not be held responsible for what its users post, or any other actions of its users. You may not use this site to distribute or download any material when you do not have the legal rights to do so. It is your own responsibility to adhere to these terms.)
» Zgłaszanie nadużyć / Abuse