Jedyny taki katalog polskich torrentów w sieci. Najlepsze torrenty w jednym miejscu.

Korzystanie ze strony jest darmowe. W przeciwieństwie do konkurencji nie kasujemy kont użytkowników bez ich wyraźnej prośby.


Torrent: Kapitan America Pierwsze starcie / Captain America The First Avenger (2011) [Multi] [720p.BluRay.x264.DTS.AC3-DX] [Lektor i Napisy PL]

Kapitan America Pierwsze starcie / Captain America The First Avenger (2011) [Multi] [720p.BluRay.x264.DTS.AC3-DX] [Lektor i Napisy PL] torrent
Dodał: aladyn1234
19.07.2015 13:16
Kategoria: Akcja

Rozmiar: 6.03 GB
Seed'ów: 0
Leecher'ów: 0
Pobrań: 0

Kondycja:
 


» Komentarze [1]
» Obserwuj
» Zgłoś plik
Tytuł PL: Captain America: Pierwsze Starcie
Tytuł: The First Avenger
======================

Produkcja: USA
Gatunek: Akcja, Sci-Fi
Czas Trwania: 124 min.
Premiera: 05.08.2011 - Polska, 21.07.2011 - Świat
Reżyseria: Joe Johnston
Scenariusz: Stephen McFeely Christopher Markus
http://www.youtube.com/watch?v=mNzv0rbCn0Y

[opis]
=====
Kapitan Ameryka /właściwie Steve Rogers/ to pierwsza postać stworzona przez Marvel Comics. Steve przed wojną był studentem sztuki, który w 1940 postanowił zaciągnąć się do wojska. Nie został przyjęty z powodu słabego zdrowia, ale dostał propozycję uczestniczenia w tajnym eksperymencie. Został poddany terapii, która zwiększyła jego inteligencję i siłę. Przemienił się w super bohatera nazwanego Kapitan Ameryka. Zostaje wysłany do walki z nazistami, jego największym wrogiem jest Red Skull.



[obsada]
========
Chris Evans ... Steve Rogers / Kapitan Ameryka
Hugo Weaving ... Johann Schmidt / Red Skull
Tommy Lee Jones ... Płk Chester Phillips
Hayley Atwell ... Peggy Carter
Stanley Tucci ... Abraham Erskine
Sebastian Stan ... Bucky Barnes
Dominic Cooper ... Howard Stark
Natalie Dormer ... Szer. Lorraine



[dane]
=================
Format : Matroska
File size : 6.03 GiB
Duration : 2h 4mn
Overall bit rate : 6 952 Kbps
Video #1
ID : 1
Format : AVC
Format/Info : Advanced Video Codec
Format profile : High@L4.1
Codec ID : V_MPEG4/ISO/AVC
Duration : 2h 4mn
Bit rate : 4 856 Kbps
Nominal bit rate : 4 995 Kbps
Width : 1 280 pixels
Height : 544 pixels
Display aspect ratio : 2.35:1
Frame rate : 59.940 fps
Resolution : 24 bits
Audio #2
ID : 2
Format : DTS
Format/Info : Digital Theater Systems
Codec ID : A_DTS
Duration : 2h 4mn
Bit rate mode : Constant
Bit rate : 1 510 Kbps
Channel(s) : 6 channels
Channel positions : Front: L C R, Surround: L R, LFE
Sampling rate : 48.0 KHz
Resolution : 24 bits
Video delay : 36ms
Stream size : 1.31 GiB (22%)
Title : English DTS 5.1 - 1510 Kbps
Audio #3
ID : 3
Format : AC-3
Format/Info : Audio Coding 3
Codec ID : A_AC3
Duration : 2h 4mn
Bit rate mode : Constant
Bit rate : 448 Kbps
Channel(s) : 6 channels
Channel positions : Front: L C R, Surround: L R, LFE
Sampling rate : 48.0 KHz
Video delay : 18ms
Stream size : 398 MiB (6%)
Title : Polish AC3 5.1 - 448 Kbps
Language : Polish
Text #4
ID : 4
Format : SSA
Codec ID : S_TEXT/SSA
Codec ID/Info : Sub Station Alpha
Title : Polish SSA
Language : Polish
Ocena użytkowników Help
Działa(0) | Fake(0) | Nie działa(0) | Wymagane hasło(0) | Wirus(0)
Statystyki seed/leech Ostatnio aktualizowane: 2020-07-22 08:16:27 [Aktualizuj]
waran78
waran78
Napisano: 2019-05-07 18:59
 
coś słaba ta kondycja ....od łuższego czasu nie da sie pobrać...może ktoś akurat tą konkretną wersję reaktywuje?
Oświadczenie: Pliki prezentowane w katalogu nie znajdują się na serwerach wortalu. Użytkownicy zezwolili na ich udostępnienie. Administrator serwisu BitNova.info oraz właściciel serwera nie może ponieść konsekwencji za to co użytkownicy udostępniają i publikują. Pamiętaj! Nie możesz używać tego serwisu do rozpowszechniania lub ściągania materiałów do których nie masz odpowiednich praw lub licencji. Użytkownicy są odpowiedzialni za przestrzeganie tych zasad.

(Disclaimer: None files presented in the directory aren't hosted on servers vortal. Users allow their release. The administrator of site BitNova.info and owner of the server can not be held responsible for what its users post, or any other actions of its users. You may not use this site to distribute or download any material when you do not have the legal rights to do so. It is your own responsibility to adhere to these terms.)
» Zgłaszanie nadużyć / Abuse