Jedyny taki katalog polskich torrentów w sieci. Najlepsze torrenty w jednym miejscu.

Korzystanie ze strony jest darmowe. W przeciwieństwie do konkurencji nie kasujemy kont użytkowników bez ich wyraźnej prośby.

Torrent: Na skraju jutra / Edge of Tomorrow (2014) [3D] [MULTI.3D.HSBS.1080p.BluRay.x264-TDJ] [Lektor PL]

Na skraju jutra / Edge of Tomorrow (2014) [3D] [MULTI.3D.HSBS.1080p.BluRay.x264-TDJ] [Lektor PL] torrent
Dodał: aladyn1234
19.09.2014 16:05
Kategoria: Akcja

Rozmiar: 8.24 GB
Seed'ów: 0
Leecher'ów: 0
Pobrań: 0

Kondycja:
 


» Komentarze [0]
» Obserwuj
» Zgłoś plik
Tytuł: Edge of Tomorrow
Polski Tytuł: Na skraju jutra
====================

Ocena: IMDB - 8.1/10 (99.890), Filmweb - 7.5/10 (15.389)
Produkcja: USA
Gatunek: Akcja, Sci-Fi
Czas trwania: 112 min.
Premiera: 06.06.2014 - Polska, 28.05.2014 - Świat
Reżyseria: Doug Liman
Scenariusz: Christopher McQuarrie, Jez Butterworth, John-Henry Butterworth
Trailer:https://www.youtube.com/watch?v=W7zpo3hU3d4


[opis]
====================
Akcja filmu na podstawie powieści Hiroshiego Sakurazaki "Na skraju jutra" rozgrywa się w niedalekiej przyszłości, w której rasa obcych, zwanych Mimikami (Mimics), przypuściła na Ziemię bezlitosny atak i rozpanoszyła niczym pszczeli rój, obracając w ruinę całe miasta i zostawiając za sobą miliony ludzkich ofiar. Żadna armia na świecie nie może dorównać szybkością, okrucieństwem czy pozorną zdolnością przewidywania przyszłości uzbrojonym po zęby wojownikom zkosmosu, jak również ich dowódcom, którzy wydają rozkazy telepatycznie. Jednak nadszedł czas, kiedy armie całego świata połączyły swoje siły, by stanąć do decydującej walki na śmierć i życie przeciwko napastnikom z kosmosu. Podpułkownik Bill Cage (Tom Cruise), żołnierz, który jeszcze nigdy nie znalazł się w ogniu walki, zostaje bezceremonialnie zdegradowany i rzucony – bez odpowiedniego szkolenia i sprzętu – w sam środek, jak się później okazuje, czegoś więcej niż tylko misji samobójczej.


[obsada]
====================
★ Tom Cruise ... Cage
★ Emily Blunt ... Rita
★ Brendan Gleeson ... Generał Brigham
★ Bill Paxton ... Starszy sierżant Farell
★ Jonas Armstrong ... Skinner
★ Tony Way ... Kimmel
★ Kick Gurry ... Griff
★ Franz Drameh ... Ford

[dane]
====================
Format : Matroska
Format version : Version 4 / Version 2
File size : 8.24 GiB
Duration : 1h 53mn
Overall bit rate : 10.4 Mbps
Encoded date : UTC 2014-09-19 07:57:44
Writing application : mkvmerge v7.1.0 ('Good Love') 64bit built on Jul 27 2014 13:10:18
Writing library : libebml v1.3.0 + libmatroska v1.4.1
DURATION : 01:45:03.847000000
NUMBER_OF_FRAMES : 1452
NUMBER_OF_BYTES : 43607
_STATISTICS_WRITING_APP : mkvmerge v7.1.0 ('Good Love') 64bit built on Jul 27 2014 13:10:18
_STATISTICS_WRITING_DATE_UTC : 2014-09-19 07:57:44
_STATISTICS_TAGS : BPS DURATION NUMBER_OF_FRAMES NUMBER_OF_BYTES

Video
ID : 1
Format : AVC
Format/Info : Advanced Video Codec
Format profile : High@L4.1
Format settings, CABAC : Yes
Format settings, ReFrames : 5 frames
Codec ID : V_MPEG4/ISO/AVC
Duration : 1h 53mn
Bit rate : 8 508 Kbps
Width : 1 920 pixels
Height : 800 pixels
Display aspect ratio : 2.40:1
Frame rate mode : Constant
Frame rate : 23.976 fps
Color space : YUV
Chroma subsampling : 4:2:0
Bit depth : 8 bits
Scan type : Progressive
Bits/(Pixel*Frame) : 0.231
Stream size : 6.58 GiB (80%)
Writing library : x264 core 142 r2453 ea0ca51
Encoding settings : cabac=1 / ref=5 / deblock=1:0:0 / analyse=0x3:0x133 / me=umh / subme=7 / psy=1 / psy_rd=1.00:0.00 / mixed_ref=1 / me_range=16 / chroma_me=1 / trellis=1 / 8x8dct=1 / cqm=0 / deadzone=21,11 / fast_pskip=0 / chroma_qp_offset=-2 / threads=18 / lookahead_threads=3 / sliced_threads=0 / nr=0 / decimate=1 / interlaced=0 / bluray_compat=0 / constrained_intra=0 / bframes=3 / b_pyramid=2 / b_adapt=1 / b_bias=0 / direct=1 / weightb=1 / open_gop=0 / weightp=2 / keyint=250 / keyint_min=23 / scenecut=40 / intra_refresh=0 / rc_lookahead=40 / rc=2pass / mbtree=1 / bitrate=8508 / ratetol=1.0 / qcomp=0.60 / qpmin=0 / qpmax=69 / qpstep=4 / cplxblur=20.0 / qblur=0.5 / ip_ratio=1.40 / aq=1:1.00
Language : English
Default : Yes
Forced : No
DURATION : 01:53:26.050000000
NUMBER_OF_FRAMES : 163182
NUMBER_OF_BYTES : 7236862290
_STATISTICS_WRITING_APP : mkvmerge v7.1.0 ('Good Love') 64bit built on Jul 27 2014 13:10:18
_STATISTICS_WRITING_DATE_UTC : 2014-09-19 07:57:44
_STATISTICS_TAGS : BPS DURATION NUMBER_OF_FRAMES NUMBER_OF_BYTES

Audio #1
ID : 2
Format : DTS
Format/Info : Digital Theater Systems
Mode : 16
Format settings, Endianness : Big
Codec ID : A_DTS
Duration : 1h 53mn
Bit rate mode : Constant
Bit rate : 1 509 Kbps
Channel(s) : 6 channels
Channel positions : Front: L C R, Side: L R, LFE
Sampling rate : 48.0 KHz
Bit depth : 24 bits
Compression mode : Lossy
Stream size : 1.20 GiB (15%)
Language : English
Default : Yes
Forced : No

Audio #2
ID : 3
Format : AC-3
Format/Info : Audio Coding 3
Mode extension : CM (complete main)
Format settings, Endianness : Big
Codec ID : A_AC3
Duration : 1h 53mn
Bit rate mode : Constant
Bit rate : 384 Kbps
Channel(s) : 6 channels
Channel positions : Front: L C R, Side: L R, LFE
Sampling rate : 48.0 KHz
Bit depth : 16 bits
Compression mode : Lossy
Stream size : 312 MiB (4%)
Title : PL AC3 5.1
Language : Polish
Default : No
Forced : No

Text #1
ID : 4
Format : UTF-8
Codec ID : S_TEXT/UTF8
Codec ID/Info : UTF-8 Plain Text
Title : PL SUB
Language : Polish
Default : No
Forced : No

Text #2
ID : 5
Format : UTF-8
Codec ID : S_TEXT/UTF8
Codec ID/Info : UTF-8 Plain Text
Title : ENG SUB
Language : English
Default : No
Forced : No

Menu
00:00:00.000 : en:00:00:00.000
00:10:28.169 : en:00:10:28.169
00:17:39.100 : en:00:17:39.100
00:24:50.197 : en:00:24:50.197
00:35:57.947 : en:00:35:57.947
00:46:27.284 : en:00:46:27.284
00:54:34.771 : en:00:54:34.771
01:04:59.562 : en:01:04:59.562
01:12:53.077 : en:01:12:53.077
01:23:08.901 : en:01:23:08.901
01:32:34.132 : en:01:32:34.132
01:42:53.584 : en:01:42:53.584
01:45:46.215 : en:01:45:46.215
Ocena użytkowników Help
Działa(0) | Fake(0) | Nie działa(0) | Wymagane hasło(0) | Wirus(0)
Statystyki seed/leech Ostatnio aktualizowane: 2018-04-05 17:20:46 [Aktualizuj]


Napisano: 05.02.2023 21:56
 
Nikt jeszcze nie skomentował tego torrenta... Może Ty to zrobisz?
Oświadczenie: Pliki prezentowane w katalogu nie znajdują się na serwerach wortalu. Użytkownicy zezwolili na ich udostępnienie. Administrator serwisu BitNova.info oraz właściciel serwera nie może ponieść konsekwencji za to co użytkownicy udostępniają i publikują. Pamiętaj! Nie możesz używać tego serwisu do rozpowszechniania lub ściągania materiałów do których nie masz odpowiednich praw lub licencji. Użytkownicy są odpowiedzialni za przestrzeganie tych zasad.

(Disclaimer: None files presented in the directory aren't hosted on servers vortal. Users allow their release. The administrator of site BitNova.info and owner of the server can not be held responsible for what its users post, or any other actions of its users. You may not use this site to distribute or download any material when you do not have the legal rights to do so. It is your own responsibility to adhere to these terms.)
» Zgłaszanie nadużyć / Abuse