Jedyny taki katalog polskich torrentów w sieci. Najlepsze torrenty w jednym miejscu.

Korzystanie ze strony jest darmowe. W przeciwieństwie do konkurencji nie kasujemy kont użytkowników bez ich wyraźnej prośby.


Torrent: Moj Biegun 2013 [DVDRip XviD-BiDA] Film Polski

Moj Biegun 2013 [DVDRip XviD-BiDA] Film Polski torrent
Dodał: ela1966
11.03.2014 21:34
Kategoria: Dramat

Rozmiar: 701.18 MB
Seed'ów: 0
Leecher'ów: 0
Pobrań: 0

Kondycja:
 


» Komentarze [0]
» Obserwuj
» Zgłoś plik
Moj Biegun 2013 [DVDRip.XviD-BiDA] Film Polski

Upload By Pietraś

Info::

gatunek: Biograficzny, Dramat obyczajowy
produkcja: Polska
premiera: 25 października 2013 (Polska) 25 października 2013 (świat)
reżyseria: Marcin Głowacki
scenariusz: Marek Kłosowicz , Katarzyna Śliwińska-Kłosowicz

Opis::

W "Moim biegunie" mnóstwo jest ładnych obrazków i efektownych ujęć. Nie ma natomiast bohatera, który potrafiłby unieść półtoragodzinną opowieść. Twórcy filmu rezygnują z niego na własne życzenie. Historia Janka Meli, który jako pierwszy niepełnosprawny człowiek zdobył dwa bieguny Ziemi, w filmie Głowackiego zostaje bowiem upchnięta w formę łzawego rodzinnego dramatu.

Obsada::

Bartłomiej Topa Bogdan Mela
Magdalena Walach Urszula Mela
Maciej Musiał Janek Mela kilkunastoletni
Adam Tyniec Janek Mela kilkuletni
Wojciech Stryczek Piotruś Mela
Anna Pacho Agatka Mela kilkunastoletnia
Magdalena Zięba Agatka Mela kilkuletnia
Iga Milki Dorotka Mela kilkunastoletnia

Dane Tech::

Format : AVI
Format/Info : Audio Video Interleave
File size : 701 MiB
Duration : 1h 27mn
Overall bit rate : 1 123 Kbps
Writing library : VirtualDub build 32842/release

Video
ID : 0
Format : MPEG-4 Visual
Format profile : Advanced Simple@L5
Format settings, BVOP : 1
Format settings, QPel : No
Format settings, GMC : No warppoints
Format settings, Matrix : Default (H.263)
Muxing mode : Packed bitstream
Codec ID : XVID
Codec ID/Hint : XviD
Duration : 1h 27mn
Bit rate : 921 Kbps
Width : 640 pixels
Height : 352 pixels
Display aspect ratio : 16:9
Frame rate : 25.000 fps
Color space : YUV
Chroma subsampling : 4:2:0
Bit depth : 8 bits
Scan type : Progressive
Compression mode : Lossy
Bits/(Pixel*Frame) : 0.164
Stream size : 575 MiB (82%)
Writing library : XviD 1.2.1 (U*censored* 2008-12-04)

Audio
ID : 1
Format : AC-3
Format/Info : Audio Coding 3
Mode extension : CM (complete main)
Format settings, Endianness : Big
Codec ID : 2000
Duration : 1h 27mn
Bit rate mode : Constant
Bit rate : 192 Kbps
Channel count : 2 channels
Channel positions : Front: L R
Sampling rate : 48.0 KHz
Bit depth : 16 bits
Compression mode : Lossy
Stream size : 120 MiB (17%)
Alignment : Aligned on interleaves
Interleave, duration : 40 ms (1.00 video frame)
Interleave, preload duration : 512 ms
Ocena użytkowników Help
Działa(0) | Fake(0) | Nie działa(0) | Wymagane hasło(0) | Wirus(0)
Statystyki seed/leech Ostatnio aktualizowane: 2020-09-24 11:57:28 [Aktualizuj]
Napisano: 25.06.2021 09:44
 
Nikt jeszcze nie skomentował tego torrenta... Może Ty to zrobisz?
Oświadczenie: Pliki prezentowane w katalogu nie znajdują się na serwerach wortalu. Użytkownicy zezwolili na ich udostępnienie. Administrator serwisu BitNova.info oraz właściciel serwera nie może ponieść konsekwencji za to co użytkownicy udostępniają i publikują. Pamiętaj! Nie możesz używać tego serwisu do rozpowszechniania lub ściągania materiałów do których nie masz odpowiednich praw lub licencji. Użytkownicy są odpowiedzialni za przestrzeganie tych zasad.

(Disclaimer: None files presented in the directory aren't hosted on servers vortal. Users allow their release. The administrator of site BitNova.info and owner of the server can not be held responsible for what its users post, or any other actions of its users. You may not use this site to distribute or download any material when you do not have the legal rights to do so. It is your own responsibility to adhere to these terms.)
» Zgłaszanie nadużyć / Abuse