Jedyny taki katalog polskich torrentów w sieci. Najlepsze torrenty w jednym miejscu.

Korzystanie ze strony jest darmowe. W przeciwieństwie do konkurencji nie kasujemy kont użytkowników bez ich wyraźnej prośby.

Torrent: Grawitacja 3D(OU) - Gravity 3D *2013* [mini-HD.1080p.Over-Under.AC3.BluRay.x264-SONDA] [Lektor PL]

Grawitacja 3D(OU) - Gravity 3D *2013* [mini-HD.1080p.Over-Under.AC3.BluRay.x264-SONDA] [Lektor PL] torrent
Dodał: Anonimowy
15.02.2014 11:22
Kategoria: Sci-fi

Rozmiar: 3.94 GB
Seed'ów: 0
Leecher'ów: 0
Pobrań: 0

Kondycja:
 


» Komentarze [0]
» Obserwuj
» Zgłoś plik
Film w wersji 3D Over-Under.
Do odtworzenia filmu WYMAGANY odpowiedni sprzęt (TV 3D)

gatunek: Dramat,Sci-Fi
produkcja: USA,Wielka Brytania
premiera: 11 października 2013 (Polska) 28 sierpnia 2013 (świat)
reżyseria: Alfonso Cuarón
scenariusz: Jonás Cuarón,Alfonso Cuarón

Obsada:
Sandra Bullock - Ryan Stone
George Clooney - Matt Kowalsky
Ed Harris - Dyrektor kontroli misji
Orto Ignatiussen - Aningaaq
Paul Sharma - Shariff
Amy Warren - Kapitan w Explorerze

Opis:
Dr Ryan Stone (Sandra Bullock) jest wybitną specjalistką od inżynierii medycznej. Zatrudniona przez NASA trafia do zespołu pracującego przy naprawie teleskopu Hubble'a. Dowódcą misji jest Matt Kowalsky (George Clooney), który po powrocie na Ziemię ma zakończyć karierę astronauty. Kiedy w prom kosmiczny, którym fachowcy przylecieli na orbitę, uderzają szczątki starego rosyjskiego satelity, ginie większość członków misji. Przy życiu pozostają tylko dr Stone i Kowalsky. Od tej chwili są zdani tylko na siebie. Muszą dotrzeć do innego promu, ale zapas powietrza w uszkodzonych zbiornikach nieubłaganie się wyczerpuje...




General
Format : Matroska
Format version : Version 2
File size : 3.94 GiB
Duration : 1h 30mn
Overall bit rate mode : Variable
Overall bit rate : 6 204 Kbps
Movie name : Gravity 3D.Title98.Bluray3D Rip by Sonda [AT-Team]
Encoded date : UTC 2014-02-14 11:19:00
Writing application : mkvmerge v5.7.0 ('The Whirlwind') built on Jul 8 2012 20:08:51
Writing library : libebml v1.2.3 + libmatroska v1.3.0

Video
ID : 1
Format : AVC
Format/Info : Advanced Video Codec
Format profile : High@L4.1
Format settings, CABAC : Yes
Format settings, ReFrames : 2 frames
Codec ID : V_MPEG4/ISO/AVC
Duration : 1h 30mn
Bit rate mode : Variable
Bit rate : 5 633 Kbps
Maximum bit rate : 40.0 Mbps
Width : 1 920 pixels
Height : 1 080 pixels
Display aspect ratio : 16:9 (2.39:1)
Frame rate mode : Constant
Frame rate : 23.976 fps
Color space : YUV
Chroma subsampling : 4:2:0
Bit depth : 8 bits
Scan type : Progressive
Bits/(Pixel*Frame) : 0.113
Stream size : 3.58 GiB (91%)
Title : BluRay 3D Rip by Sonda
Writing library : x264 core
Default : Yes
Forced : No
Color primaries : BT.709
Transfer characteristics : BT.709
Matrix coefficients : BT.709

Audio
ID : 2
Format : AC-3
Format/Info : Audio Coding 3
Mode extension : CM (complete main)
Format settings, Endianness : Big
Codec ID : A_AC3
Duration : 1h 30mn
Bit rate mode : Constant
Bit rate : 448 Kbps
Channel(s) : 6 channels
Channel positions : Front: L C R, Side: L R, LFE
Sampling rate : 48.0 KHz
Bit depth : 16 bits
Compression mode : Lossy
Stream size : 292 MiB (7%)
Title : AC3 5.1 Lektor PL
Language : Polish
Default : Yes
Forced : No

Menu
Ocena użytkowników Help
Działa(0) | Fake(0) | Nie działa(0) | Wymagane hasło(0) | Wirus(0)
Statystyki seed/leech Ostatnio aktualizowane: 2021-01-01 02:11:08 [Aktualizuj]


Napisano: 05.02.2023 20:58
 
Nikt jeszcze nie skomentował tego torrenta... Może Ty to zrobisz?
Oświadczenie: Pliki prezentowane w katalogu nie znajdują się na serwerach wortalu. Użytkownicy zezwolili na ich udostępnienie. Administrator serwisu BitNova.info oraz właściciel serwera nie może ponieść konsekwencji za to co użytkownicy udostępniają i publikują. Pamiętaj! Nie możesz używać tego serwisu do rozpowszechniania lub ściągania materiałów do których nie masz odpowiednich praw lub licencji. Użytkownicy są odpowiedzialni za przestrzeganie tych zasad.

(Disclaimer: None files presented in the directory aren't hosted on servers vortal. Users allow their release. The administrator of site BitNova.info and owner of the server can not be held responsible for what its users post, or any other actions of its users. You may not use this site to distribute or download any material when you do not have the legal rights to do so. It is your own responsibility to adhere to these terms.)
» Zgłaszanie nadużyć / Abuse