Jedyny taki katalog polskich torrentów w sieci. Najlepsze torrenty w jednym miejscu.

Korzystanie ze strony jest darmowe. W przeciwieństwie do konkurencji nie kasujemy kont użytkowników bez ich wyraźnej prośby.


Torrent: Percy Jackson: Morze potworów 3D (OU) - Percy Jackson: Sea of Monsters *2013* [mini-HD.1080p.Over-Under.AC3.BluRay.x264-SONDA] [Dubbing PL]

Percy Jackson: Morze potworów 3D (OU) - Percy Jackson: Sea of Monsters *2013* [mini-HD.1080p.Over-Under.AC3.BluRay.x264-SONDA] [Dubbing PL] torrent
Dodał: Anonimowy
01.12.2013 14:20
Kategoria: Fantasy

Rozmiar: 4.00 GB
Seed'ów: 0
Leecher'ów: 0
Pobrań: 0

Kondycja:
 


» Komentarze [0]
» Obserwuj
» Zgłoś plik
Film w wersji 3D Over-Under
Do odtworzenia filmu WYMAGANY odpowiedni sprzęt (TV 3D)



gatunek: Familijny, Fantasy, Przygodowy
produkcja: USA
premiera: 16 sierpnia 2013 (Polska) 7 sierpnia 2013 (świat)
reżyseria: Thor Freudenthal
scenariusz: Marc Guggenheim

Obsada:
Logan Lerman - Percy Jackson
Alexandra Daddario - Annabeth Chase
Douglas Smith - Cyklop Tyson, przyrodni brat Percy'ego
Leven Rambin - Clarisse La Rue

Opis:
Drugi film z serii ekranizacji cyklu bestsellerowych książek Ricka Riordana; Percy Jackson, potomek bogów greckich, wyrusza na wyprawę, by odnaleźć bezcenne złote runo, a po drodze czekają go niezwykłe przygody i niewyobrażalne niebezpieczeństwa, a wśród nich starcie z morskimi potworami. W roli głównej: Logan Lerman ("Trzej muszkieterowie 3D"). Reżyseria: Thor Freudenthal ("Hotel dla psów", "Dziennik cwaniaczka").

[Blu-ray] http://www.blu-ray.com/movies/Percy-Jackson-Sea-of-Monsters-3D-Blu-ray/78614/

[IMDb] http://www.imdb.com/title/tt1854564/?ref_=fn_al_tt_2


General
Format : Matroska
Format version : Version 2
File size : 4.00 GiB
Duration : 1h 46mn
Overall bit rate mode : Variable
Overall bit rate : 5 397 Kbps
Movie name : PERCY_JACKSON_SEA_OF_MONSTERS_3D.Title800.Bluray3D Rip by Sonda [AT-Team]
Encoded date : UTC 2013-11-30 09:04:02
Writing application : mkvmerge v5.7.0 ('The Whirlwind') built on Jul 8 2012 20:08:51
Writing library : libebml v1.2.3 + libmatroska v1.3.0

Video
ID : 1
Format : AVC
Format/Info : Advanced Video Codec
Format profile : High@L4.1
Format settings, CABAC : Yes
Format settings, ReFrames : 2 frames
Codec ID : V_MPEG4/ISO/AVC
Duration : 1h 46mn
Bit rate mode : Variable
Bit rate : 4 841 Kbps
Maximum bit rate : 40.0 Mbps
Width : 1 920 pixels
Height : 1 080 pixels
Display aspect ratio : 16:9 (2.39:1)
Frame rate mode : Constant
Frame rate : 23.976 fps
Color space : YUV
Chroma subsampling : 4:2:0
Bit depth : 8 bits
Scan type : Progressive
Bits/(Pixel*Frame) : 0.097
Stream size : 3.59 GiB (90%)
Title : BluRay 3D Rip by Sonda
Writing library : x264 core
Default : Yes
Forced : No
Color primaries : BT.709
Transfer characteristics : BT.709
Matrix coefficients : BT.709

Audio
ID : 2
Format : AC-3
Format/Info : Audio Coding 3
Mode extension : CM (complete main)
Format settings, Endianness : Big
Codec ID : A_AC3
Duration : 1h 46mn
Bit rate mode : Constant
Bit rate : 448 Kbps
Channel(s) : 6 channels
Channel positions : Front: L C R, Side: L R, LFE
Sampling rate : 48.0 KHz
Bit depth : 16 bits
Compression mode : Lossy
Delay relative to video : 1s 0ms
Stream size : 340 MiB (8%)
Title : AC3 5.1 Dubbing PL
Language : Polish
Default : Yes
Forced : No
Ocena użytkowników Help
Działa(0) | Fake(0) | Nie działa(0) | Wymagane hasło(0) | Wirus(0)
Statystyki seed/leech Ostatnio aktualizowane: 2021-09-22 17:46:24 [Aktualizuj]
Napisano: 07.12.2021 03:15
 
Nikt jeszcze nie skomentował tego torrenta... Może Ty to zrobisz?
Oświadczenie: Pliki prezentowane w katalogu nie znajdują się na serwerach wortalu. Użytkownicy zezwolili na ich udostępnienie. Administrator serwisu BitNova.info oraz właściciel serwera nie może ponieść konsekwencji za to co użytkownicy udostępniają i publikują. Pamiętaj! Nie możesz używać tego serwisu do rozpowszechniania lub ściągania materiałów do których nie masz odpowiednich praw lub licencji. Użytkownicy są odpowiedzialni za przestrzeganie tych zasad.

(Disclaimer: None files presented in the directory aren't hosted on servers vortal. Users allow their release. The administrator of site BitNova.info and owner of the server can not be held responsible for what its users post, or any other actions of its users. You may not use this site to distribute or download any material when you do not have the legal rights to do so. It is your own responsibility to adhere to these terms.)
» Zgłaszanie nadużyć / Abuse